↑↓torrent.by
Поиск
Логин:  Регистрация
Пароль:

Территория зла / Land of Bad (2024) WEB-DLRip-AVC от ExKinoRay | D

download Скачать торрент-файл   magnet Магнитная ссылка Размер: 1.45 GB Добавлен: 2024-05-31 11:00
Пиры будут получены из сети DHT
Последний сидер был замечен 2024-06-18 10:03
Информация о фильме Название: Территория зла Оригинальное название: Land of Bad Год выхода: 2024 Жанр: боевик, триллер Режиссер: Уильям Юбэнк В ролях: Лиам Хемсворт, Расселл Кроу, Люк Хемсворт, Рики Уиттл, Майло Вентимилья, Чика Икогве, Дэниэл МакФерсон, Роберт Рабия, Джек Финстерер, Крис Мастерс Мах Описание: Отряд американского спецназа тайно высаживается на территорию Филиппин для выполнения секретной миссии по спасению важного заложника. С базы поддержку с воздуха осуществляют оператор беспилотника Рипер и его напарница. Вскоре ситуация принимает неожиданный оборот, и бойцы вынуждены вступить в бой с превосходящими силами противника. После ожесточённого боя в живых остаётся лишь сержант Кинни — молодой морпех, отвечающий за связь с Рипером и координацию его действий. Для Кинни это лишь вторая боевая миссия, и теперь парню придётся в одиночку пробираться по вражеской территории к точке эвакуации, а Рипер становится его единственной надеждой на спасение. Выпущено: США / Volition Media Partners, Broken Open Pictures, Highland Film Group (HFG) Продолжительность: 01:53:16 Озвучивание: Дублированное | Мосфильм-Мастер Формат: MKV Качество: WEB-DLRip-AVC Видео: MPEG-4 AVC, 720x300, 23.976 fps, 1379 Kbps, 0.266 bit/pixel Аудио: 48 kHz, AC3, 3/2 (L,C,R,l,r) + LFE ch, ~448.00 kbps avg Субтитры: Русские (Forced, Full (Enigma)), английские (Full)
[+] МИGeneral Unique ID : 209531367240243807087944091975478317248 (0x9DA24600888A44A9A76D7BBE120A90C0) Complete name : D:Teрitoрiazla2024.WEB-DL.AVC.ExKinoRay.mkv Format : Matroska Format version : Version 4 / Version 2 File size : 1.45 GiB Duration : 1 h 53 min Overall bit rate : 1 828 kb/s Movie name : Территория зла (2024) from ExKinoRay Encoded date : UTC 2024-04-12 02:36:49 Writing application : mkvmerge v7.6.0 ('Garden of Dreams') 32bit built on Feb 11 2015 00:18:47 Writing library : libebml v1.3.1 + libmatroska v1.4.2 Video ID : 1 Format : AVC Format/Info : Advanced Video Codec Format profile : High@L4.1 Format settings, CABAC : Yes Format settings, ReFrames : 10 frames Codec ID : V_MPEG4/ISO/AVC Duration : 1 h 53 min Bit rate : 1 379 kb/s Width : 720 pixels Height : 300 pixels Display aspect ratio : 2.40:1 Frame rate mode : Constant Frame rate : 23.976 (24000/1001) FPS Color space : YUV Chroma subsampling : 4:2:0 Bit depth : 8 bits Scan type : Progressive Bits/(Pixel*Frame) : 0.266 Stream size : 1.09 GiB (75%) Writing library : x264 core 164 r3107+58M ae98796 t_mod_New Encoding settings : cabac=1 / ref=10 / deblock=1:-2:-2 / analyse=0x3:0x133 / me=umh / subme=10 / psy=1 / fade_compensate=0.00 / psy_rd=1.00:0.00 / mixed_ref=1 / me_range=32 / chroma_me=1 / trellis=2 / 8x8dct=1 / cqm=0 / deadzone=21,11 / fast_pskip=0 / chroma_qp_offset=-2 / threads=9 / lookahead_threads=2 / sliced_threads=0 / nr=0 / decimate=0 / interlaced=0 / bluray_compat=0 / constrained_intra=0 / fgo=0 / bframes=10 / b_pyramid=2 / b_adapt=2 / b_bias=0 / direct=3 / weightb=1 / open_gop=0 / weightp=2 / keyint=240 / keyint_min=23 / scenecut=40 / intra_refresh=0 / rc=2pass / mbtree=0 / bitrate=1379 / ratetol=1.0 / qcomp=0.60 / qpmin=0:0:0 / qpmax=69:69:69 / qpstep=4 / cplxblur=20.0 / qblur=0.5 / ip_ratio=1.40 / pb_ratio=1.30 / aq=1:1.00 / aq-sensitivity=10.00 / aq-factor=1.00:1.00:1.00 / aq2=0 / aq3=0 Default : Yes Forced : No Audio ID : 2 Format : AC-3 Format/Info : Audio Coding 3 Mode extension : CM (complete main) Format settings, Endianness : Big Codec ID : A_AC3 Duration : 1 h 53 min Bit rate mode : Constant Bit rate : 448 kb/s Channel(s) : 6 channels Channel positions : Front: L C R, Side: L R, LFE Sampling rate : 48.0 kHz Frame rate : 31.250 FPS (1536 spf) Compression mode : Lossy Stream size : 363 MiB (25%) Title : Dub (Mosfilm) Language : Russian Default : Yes Forced : No Text #1 ID : 3 Format : UTF-8 Codec ID : S_TEXT/UTF8 Codec ID/Info : UTF-8 Plain Text Duration : 1 h 42 min Bit rate : 1 b/s Count of elements : 35 Stream size : 1.29 KiB (0%) Title : Forced Language : Russian Default : Yes Forced : No Text #2 ID : 4 Format : UTF-8 Codec ID : S_TEXT/UTF8 Codec ID/Info : UTF-8 Plain Text Duration : 1 h 48 min Bit rate : 71 b/s Count of elements : 1488 Stream size : 57.2 KiB (0%) Title : Full (Enigma) Language : Russian Default : No Forced : No Text #3 ID : 5 Format : UTF-8 Codec ID : S_TEXT/UTF8 Codec ID/Info : UTF-8 Plain Text Duration : 1 h 45 min Bit rate : 46 b/s Count of elements : 1493 Stream size : 35.8 KiB (0%) Language : English Default : No Forced : No Menu 00:00:00.000 : en:Chapter 01 00:05:50.000 : en:Chapter 02 00:11:40.000 : en:Chapter 03 00:17:30.000 : en:Chapter 04 00:23:20.000 : en:Chapter 05 00:29:10.000 : en:Chapter 06 00:35:00.000 : en:Chapter 07 00:40:50.000 : en:Chapter 08 00:46:40.000 : en:Chapter 09 00:52:30.000 : en:Chapter 10 00:58:20.000 : en:Chapter 11 01:04:10.000 : en:Chapter 12 01:10:00.000 : en:Chapter 13 01:15:50.000 : en:Chapter 14 01:21:40.000 : en:Chapter 15 01:27:30.000 : en:Chapter 16 01:33:20.000 : en:Chapter 17 01:39:10.000 : en:Chapter 18 01:45:00.000 : en:Chapter 19 01:50:50.000 : en:Chapter 20
Релиз от: Автор релиза:

Всего файлов в раздаче: 1 
Teрitoрiazla2024.WEB-DL.AVC.ExKinoRay.mkv1.45 GB

Похожие раздачи по запросу - Территория
Сегодня magnet Сара Брукс - Территория чудовищ. Путеводитель для осторожных туристов (2024) FB2 2.16 MB ↑ 0 ↓ 0
2024-05-30 magnet В осаде 2: Темная территория / Under Siege 2: Dark Territory (1995) BDRip-AVC от ExKinoRay | P 746.01 MB ↑ 0 ↓ 0
2024-05-17 magnet Территория зла / Land of Bad (2024) WEB-DLRip-AVC от ExKinoRay | D 746.10 MB ↑ 0 ↓ 0
2024-04-06 magnet Территория зла / Land of Bad (2024) WEB-DL 1080p от селезень | D, P2 8.62 GB ↑ 0 ↓ 0
2024-04-06 magnet Территория зла / Land of Bad (2024) UHD WEB-DL-HEVC 2160p от селезень | 4K | HDR | HDR10+ | Dolby Vision Profile 8 | D, P2 20.69 GB ↑ 1 ↓ 0
2024-04-06 magnet Территория зла / Land of Bad (2024) UHD WEB-DL-HEVC 2160p | 4K | SDR | D, P2 13.59 GB ↑ 0 ↓ 0
2024-04-06 magnet Территория зла / Land of Bad (2024) WEB-DLRip от toxics & селезень | D 1.46 GB ↑ 0 ↓ 0

Кто качает (только для создателя раздачи и модераторов): Локальные пиры отсутствуют

Комментарии


Зарегистрируйтесь чтобы добавить комментарий
Торрент клиент
byTorrent - программа для загрузки торрент-файлов.

Скачать byTorrent.exe (1,5 МБ)

Скачать byTorrent.zip (0,6 МБ)

Поддержи torrent.by
российских рублей
(300 российских рублей это 4$)

Обратная связь rss

End game ©