↑↓torrent.by
Поиск
Логин:  Регистрация
Пароль:

Каскадёры / The Fall Guy (2024) WEB-DLRip-AVC | D, P

download Скачать торрент-файл   magnet Магнитная ссылка Размер: 1.09 GB Добавлен: 2024-05-31 11:00
Пиры будут получены из сети DHT
Последний сидер был замечен 2024-06-05 17:24
Информация о фильме Название: Каскадёры Оригинальное название: The Fall Guy Год выхода: 2024 Жанр: боевик, драма, комедия Режиссер: Дэвид Литч В ролях: Райан Гослинг, Эмили Блант, Аарон Тейлор-Джонсон, Ханна Уэддингхэм, Тереза Палмер, Стефани Сюй, Уинстон Дьюк, Бен Найт, Матузе, Адам Данн О фильме: После травмы на съёмках каскадёр Кольт Сиверс уже полтора года как ушёл из профессии, работает парковщиком и винит себя за тот неудавшийся трюк. Внезапно ему звонит продюсерша и просит срочно прилететь в Австралию, где его бывшая девушка-оператор Джоди снимает свой режиссёрский дебют, масштабную фантастику «Металшторм». По приезде выясняется, что Джоди видеть его не рада, а также дело осложнятся пропажей исполнителя главной роли — звезды боевиков, у которого Кольт когда-то был дублёром. Рейтинг MPAA: PG-13 - детям до 13 лет просмотр не желателен Страна: США, Австралия, Канада Студия: 87North, Australian Government, Entertainment 360 Продолжительность: 02:07:02 Перевод: Дублированный (неофициальный), Профессиональный (многоголосый, закадровый) Файл Формат: Matroska Качество: WEB-DLRip-AVC Видео: High@L3.2, 768x320 (2.40:1), at 23.976 fps, 1066 kbps Аудио #1: AAC LC SBR (HE-AAC), 48.0 kHz, 2 ch, 80 kbps | DUB - Red Head Sound Аудио #2: AAC LC SBR (HE-AAC), 48.0 kHz, 2 ch, 80 kbps | MVO - TVShows Субтитры: Russian (Forced), English (SDH)
[+] О звукеИсходный звук дорожки #2 получен путём наложения декодированной дорожки TVShows на декодированный оригинал + коррекция динамического диапазона с целью получения нормального закадрового перевода.
[+] x264 / MediaInfox264 : frame I:1767 Avg QP:18.55 size: 29451 x264 : frame P:46640 Avg QP:20.55 size: 10795 x264 : frame B:134353 Avg QP:22.59 size: 3411 x264 : consecutive B-frames: 3.1% 3.8% 11.3% 44.6% 16.5% 15.6% 2.2% 1.4% 0.4% 0.2% 0.8% General Unique ID : 230573445015454298899569757308891305134 (0xAD76D488E0895525A6C03F6B4D1214AE) Complete name : D:VideoMKVThe.Fall.Guy.2024.DUB.MVO.WEB-DLRip-AVC.mkv Format : Matroska Format version : Version 4 File size : 1.09 GiB Duration : 2 h 7 min Overall bit rate : 1 226 kb/s Encoded date : UTC 2024-05-30 21:45:24 Writing application : mkvmerge v8.5.0 ('Vanishing Act') 32bit Writing library : libebml v1.3.1 + libmatroska v1.4.2 Video ID : 1 Format : AVC Format/Info : Advanced Video Codec Format profile : High@L3.2 Format settings : CABAC / 14 Ref Frames Format settings, CABAC : Yes Format settings, RefFrames : 14 frames Codec ID : V_MPEG4/ISO/AVC Duration : 2 h 7 min Bit rate : 1 066 kb/s Width : 768 pixels Height : 320 pixels Display aspect ratio : 2.40:1 Frame rate mode : Constant Frame rate : 23.976 (24000/1001) FPS Color space : YUV Chroma subsampling : 4:2:0 Bit depth : 8 bits Scan type : Progressive Bits/(Pixel*Frame) : 0.181 Stream size : 967 MiB (87%) Title : The Fall Guy Writing library : x264 core 133 r2334 a3ac64b Encoding settings : cabac=1 / ref=14 / deblock=1:-1:-1 / analyse=0x3:0x133 / me=umh / subme=10 / psy=1 / psy_rd=1.00:0.00 / mixed_ref=1 / me_range=32 / chroma_me=1 / trellis=2 / 8x8dct=1 / cqm=0 / deadzone=21,11 / fast_pskip=0 / chroma_qp_offset=-2 / threads=6 / lookahead_threads=1 / sliced_threads=0 / nr=0 / decimate=0 / interlaced=0 / bluray_compat=0 / constrained_intra=0 / bframes=10 / b_pyramid=2 / b_adapt=2 / b_bias=0 / direct=3 / weightb=1 / open_gop=0 / weightp=2 / keyint=240 / keyint_min=23 / scenecut=40 / intra_refresh=0 / rc=2pass / mbtree=0 / bitrate=1066 / ratetol=1.0 / qcomp=0.74 / qpmin=0 / qpmax=69 / qpstep=4 / cplxblur=20.0 / qblur=0.5 / ip_ratio=1.15 / pb_ratio=1.30 / aq=2:1.00 Language : English Default : Yes Forced : No Color range : Limited Color primaries : BT.709 Transfer characteristics : BT.709 Matrix coefficients : BT.709 Audio #1 ID : 2 Format : AAC LC SBR Format/Info : Advanced Audio Codec Low Complexity with Spectral Band Replication Commercial name : HE-AAC Format settings : Explicit Codec ID : A_AAC-2 Duration : 2 h 6 min Bit rate : 80.0 kb/s Channel(s) : 2 channels Channel layout : L R Sampling rate : 48.0 kHz Frame rate : 23.438 FPS (2048 SPF) Compression mode : Lossy Stream size : 72.3 MiB (6%) Title : DUB - Red Head Sound Language : Russian Default : Yes Forced : No Audio #2 ID : 3 Format : AAC LC SBR Format/Info : Advanced Audio Codec Low Complexity with Spectral Band Replication Commercial name : HE-AAC Format settings : Explicit Codec ID : A_AAC-2 Duration : 2 h 6 min Bit rate : 80.0 kb/s Channel(s) : 2 channels Channel layout : L R Sampling rate : 48.0 kHz Frame rate : 23.438 FPS (2048 SPF) Compression mode : Lossy Stream size : 72.3 MiB (6%) Title : MVO - TVShows (mixed) Language : Russian Default : No Forced : No Text #1 ID : 4 Format : UTF-8 Codec ID : S_TEXT/UTF8 Codec ID/Info : UTF-8 Plain Text Duration : 2 h 4 min Bit rate : 5 b/s Count of elements : 102 Stream size : 5.22 KiB (0%) Title : Forced Language : Russian Default : Yes Forced : No Text #2 ID : 5 Format : UTF-8 Codec ID : S_TEXT/UTF8 Codec ID/Info : UTF-8 Plain Text Duration : 2 h 6 min Bit rate : 103 b/s Count of elements : 2948 Stream size : 96.1 KiB (0%) Title : SDH Language : English Default : No Forced : No Menu 00:00:00.000 : en:Chapter 01 00:05:53.687 : en:Chapter 02 00:11:19.804 : en:Chapter 03 00:16:34.160 : en:Chapter 04 00:21:20.321 : en:Chapter 05 00:27:00.120 : en:Chapter 06 00:35:48.398 : en:Chapter 07 00:40:11.161 : en:Chapter 08 00:44:50.607 : en:Chapter 09 00:54:12.293 : en:Chapter 10 00:59:57.931 : en:Chapter 11 01:06:10.804 : en:Chapter 12 01:12:10.622 : en:Chapter 13 01:18:48.937 : en:Chapter 14 01:27:36.131 : en:Chapter 15 01:32:47.317 : en:Chapter 16 01:40:14.639 : en:Chapter 17 01:45:10.852 : en:Chapter 18 01:50:55.655 : en:Chapter 19 01:59:36.760 : en:Chapter 20
[+] Скриншоты

Всего файлов в раздаче: 1 
The.Fall.Guy.2024.DUB.MVO.WEB-DLRip-AVC.mkv1.09 GB

Похожие раздачи по запросу - Каскадёры
2024-06-10 magnet Каскадёры / The Fall Guy (2024) UHD WEB-DL HEVC 2160p | 4K | HDR | Dolby Vision Profile 8 | D, P 24.51 GB ↑ 0 ↓ 0
2024-06-10 magnet Каскадёры / The Fall Guy (2024) UHD WEB-DL HEVC 2160p | 4K | SDR | D, P 16.06 GB ↑ 0 ↓ 1
2024-06-10 magnet Каскадёры / The Fall Guy (2024) UHD WEB-DL HEVC 2160p | 4K | Dolby Vision TV | D, P 15.58 GB ↑ 0 ↓ 0
2024-06-08 magnet Каскадёры / The Fall Guy (2024) WEB-DLRip-AVC от ExKinoRay | D 2.19 GB ↑ 0 ↓ 0
2024-06-01 magnet Каскадёры / Каскадер / The Fall Guy (2024) WEB-DL-HEVC 2160p | 4K | SDR | D | Line | UKR 9.85 GB ↑ 0 ↓ 0
2024-05-30 magnet Каскадёры / The Fall Guy (2024) WEB-DL 1080p | D, P 8.97 GB ↑ 1 ↓ 4
2024-05-30 magnet Каскадёры / Каскадер / The Fall Guy (2024) WEB-DL 1080p | D | Line | UKR 8.57 GB ↑ 0 ↓ 0

Кто качает (только для создателя раздачи и модераторов): Локальные пиры отсутствуют

Комментарии


Зарегистрируйтесь чтобы добавить комментарий
Торрент клиент
byTorrent - программа для загрузки торрент-файлов.

Скачать byTorrent.exe (1,5 МБ)

Скачать byTorrent.zip (0,6 МБ)

Поддержи torrent.by
российских рублей
(300 российских рублей это 4$)

Обратная связь rss

End game ©