↑↓torrent.by
Поиск
Логин:  Регистрация
Пароль:

Обратно во мрак / Back to Black (2024) WEB-DLRip-AVC от ExKinoRay | P | Jaskier

download Скачать торрент-файл   magnet Магнитная ссылка Размер: 1.46 GB Добавлен: 2024-05-31 11:00
Пиры будут получены из сети DHT
Последний сидер был замечен 2024-06-09 11:55
Информация о фильме Название: Обратно во мрак Оригинальное название: Back to Black Год выхода: 2024 Жанр: биография, музыка, драма Режиссер: Сэм Тейлор-Джонсон В ролях: Мариса Абела, Джек О’Коннелл, Эдди Марсан, Лесли Мэнвилл, Джульетт Кауэн, Sam Buchanan, Пит Ли-Уилсон, Тельма Руби, Майкл С. Сигел, Матильда Торпе О фильме: Лондон, начало 2000-х. Начинающая певица и автор песен Эми Уайнхаус выпускает дебютный альбом и начинает обретать популярность. Менеджеры настаивают на смене имиджа, но своенравная Эми решает взять отпуск и идёт в бар, где знакомится с интересным парнем Блейком — любовью всей своей жизни. Страна: Франция, Великобритания, США Студия: StudioCanal UK, Monumental Pictures, Canal+ Перевод: Профессиональный (многоголосый закадровый) Jaskier Формат: MKV Качество: WEB-DLRip-AVC Видео: MPEG-4 AVC, 720x390, 24.000 fps, 1322 Kbps, 0.196 bit/pixel Аудио: 48 kHz, AC3, 3/2 (L,C,R,l,r) + LFE ch, ~384.00 kbps avg (без цензуры, 18+) Присутствует ненормативная лексика Субтитры: Русские (Forced (Jaskier), Full (Enigma)), Английские (Full, SDH)
[+] МИGeneral Unique ID : 244028101275843718861634368920425282490 (0xB7961A4DF300AE7FB58B980E11933BBA) Complete name : D:Оbpatnоvоmpak2024.AMZN.WEB-DL.AVC.ExKinoRay.mkv Format : Matroska Format version : Version 4 / Version 2 File size : 1.46 GiB Duration : 2 h 2 min Overall bit rate : 1 706 kb/s Movie name : Обратно во мрак (2024) from ExKinoRay Encoded date : UTC 2024-05-30 20:09:43 Writing application : mkvmerge v7.6.0 ('Garden of Dreams') 32bit built on Feb 11 2015 00:18:47 Writing library : libebml v1.3.1 + libmatroska v1.4.2 Video ID : 1 Format : AVC Format/Info : Advanced Video Codec Format profile : High@L4.1 Format settings, CABAC : Yes Format settings, ReFrames : 10 frames Codec ID : V_MPEG4/ISO/AVC Duration : 2 h 2 min Bit rate : 1 322 kb/s Width : 720 pixels Height : 390 pixels Display aspect ratio : 1.85:1 Frame rate mode : Constant Frame rate : 24.000 FPS Color space : YUV Chroma subsampling : 4:2:0 Bit depth : 8 bits Scan type : Progressive Bits/(Pixel*Frame) : 0.196 Stream size : 1.13 GiB (77%) Writing library : x264 core 164 r3107+58M ae98796 t_mod_New Encoding settings : cabac=1 / ref=10 / deblock=1:-2:-2 / analyse=0x3:0x133 / me=umh / subme=10 / psy=1 / fade_compensate=0.00 / psy_rd=1.00:0.00 / mixed_ref=1 / me_range=32 / chroma_me=1 / trellis=2 / 8x8dct=1 / cqm=0 / deadzone=21,11 / fast_pskip=0 / chroma_qp_offset=-2 / threads=12 / lookahead_threads=3 / sliced_threads=0 / nr=0 / decimate=0 / interlaced=0 / bluray_compat=0 / constrained_intra=0 / fgo=0 / bframes=10 / b_pyramid=2 / b_adapt=2 / b_bias=0 / direct=3 / weightb=1 / open_gop=0 / weightp=2 / keyint=240 / keyint_min=24 / scenecut=40 / intra_refresh=0 / rc=2pass / mbtree=0 / bitrate=1322 / ratetol=1.0 / qcomp=0.60 / qpmin=0:0:0 / qpmax=69:69:69 / qpstep=4 / cplxblur=20.0 / qblur=0.5 / ip_ratio=1.40 / pb_ratio=1.30 / aq=1:1.00 / aq-sensitivity=10.00 / aq-factor=1.00:1.00:1.00 / aq2=0 / aq3=0 Default : Yes Forced : No Audio ID : 2 Format : AC-3 Format/Info : Audio Coding 3 Mode extension : CM (complete main) Format settings, Endianness : Big Codec ID : A_AC3 Duration : 2 h 2 min Bit rate mode : Constant Bit rate : 384 kb/s Channel(s) : 6 channels Channel positions : Front: L C R, Side: L R, LFE Sampling rate : 48.0 kHz Frame rate : 31.250 FPS (1536 spf) Compression mode : Lossy Stream size : 336 MiB (23%) Title : MVO (Jaskier) 18 + Language : Russian Default : Yes Forced : No Text #1 ID : 3 Format : UTF-8 Codec ID : S_TEXT/UTF8 Codec ID/Info : UTF-8 Plain Text Duration : 1 h 53 min Bit rate : 22 b/s Count of elements : 355 Stream size : 18.9 KiB (0%) Title : Forced (songs) Language : Russian Default : Yes Forced : No Text #2 ID : 4 Format : UTF-8 Codec ID : S_TEXT/UTF8 Codec ID/Info : UTF-8 Plain Text Duration : 1 h 56 min Bit rate : 83 b/s Count of elements : 1652 Stream size : 71.1 KiB (0%) Title : Full (Enigma) Language : Russian Default : No Forced : No Text #3 ID : 5 Format : UTF-8 Codec ID : S_TEXT/UTF8 Codec ID/Info : UTF-8 Plain Text Duration : 1 h 59 min Bit rate : 57 b/s Count of elements : 1424 Stream size : 50.5 KiB (0%) Title : Full Language : English Default : No Forced : No Text #4 ID : 6 Format : UTF-8 Codec ID : S_TEXT/UTF8 Codec ID/Info : UTF-8 Plain Text Duration : 1 h 59 min Bit rate : 61 b/s Count of elements : 1519 Stream size : 53.4 KiB (0%) Title : SDH Language : English Default : No Forced : No
Релиз от: Автор релиза:

Всего файлов в раздаче: 1 
Оbpatnоvоmpak2024.AMZN.WEB-DL.AVC.ExKinoRay.mkv1.46 GB

Похожие раздачи по запросу - Обратно
2024-06-09 magnet Обратно во мрак / Back to Black (2024) WEB-DL 1080p от New-Team | P, L 7.53 GB ↑ 0 ↓ 0
2024-05-31 magnet Обратно во мрак / Back to Black (2024) WEB-DL 1080p от New-Team | P, L | HDRezka, Jaskier, Soundmasters 7.20 GB ↑ 0 ↓ 1
2024-05-30 magnet Обратно во мрак / Back to Black (2024) WEB-DL 1080p от New-Team | P, L | Jaskier, Soundmasters 7.04 GB ↑ 0 ↓ 0
2024-05-30 magnet Обратно во мрак / Back to Black (2024) WEB-DL 720p от DoMiNo & селезень | P, L | Jaskier, Soundmasters 3.38 GB ↑ 0 ↓ 0
2024-05-30 magnet Обратно во мрак / Back to Black (2024) WEB-DL 1080p от Jaskier | P 9.15 GB ↑ 0 ↓ 0
2023-08-15 magnet Клиффорд Саймак - Зачем звать их обратно с небес? (2023) MP3 209.60 MB ↑ 0 ↓ 0

Кто качает (только для создателя раздачи и модераторов): Локальные пиры отсутствуют

Комментарии


Зарегистрируйтесь чтобы добавить комментарий
Торрент клиент
byTorrent - программа для загрузки торрент-файлов.

Скачать byTorrent.exe (1,5 МБ)

Скачать byTorrent.zip (0,6 МБ)

Поддержи torrent.by
российских рублей
(300 российских рублей это 4$)

Обратная связь rss

End game ©