↑↓torrent.by
Поиск
Логин:  Регистрация
Пароль:

Телохранитель киллера / The Hitman's Bodyguard (2017) HDRip-AVC от ExKinoRay | D, A | Лицензия

download Скачать торрент-файл   magnet Магнитная ссылка Размер: 2.68 GB Добавлен: 2024-05-31 11:00
Пиры будут получены из сети DHT
Последний сидер был замечен вчера в 20:22
Информация о фильме Название: Телохранитель киллера Оригинальное название: The Hitman's Bodyguard Год выпуска: 2017 Жанр: Боевик, комедия Выпущено: США, Китай, Болгария, Нидерланды, Campbell Grobman Films, Cristal Pictures, East Light Media, Millennium Films Режиссер: Патрик Хьюз В ролях: Райан Рейнольдс, Сэмюэл Л. Джексон, Элоди Юнг, Сальма Хайек, Гэри Олдман, Жоаки де Алмейда, Юрий Колокольников, Тине Жустра, Сэм Хэзелдайн, Ричард Э. Грант, Род Халлетт, Нуртье Херлар, Михаил Горевой, Кирсти Митчелл, Крис Брейзиер, Алан МакКенна, Жозефин де ла Буме, Ори Феффер, Александр Меркюри, Майкл Джинкс, Джастин Пирсон, Оуэн Дэвис Описание: Быть телохранителем непросто, тем более, если ты изначально ненавидишь своего подопечного и ничего кроме смерти ему не желаешь. Главный герой давно служит на месте телохранителя и работает на защиту свидетелей. В этот раз ему не повезло. Он понимает, что не может относиться предвзято к любому, кого нужно защищать, а должен лишь выполнять свое дело. Однако как он ни старается, а в итоге приходится все время испытывать дискомфорт в общении с мерзкими ему людьми, но то, что ему придется защищать убийцу, этого он не мог представить даже в самом страшном сне. Страна: США, Китай, Болгария, Нидерланды Студия: Campbell Grobman Films, Cristal Pictures, East Light Media, Millennium Films Продолжительность: 01:58:19 Перевод: #1: Дублированный | Лицензия #2: Авторский | Михаил Чадов Субтитры: Английские Файл Формат: MKV Качество: HDRip-AVC Видео: MPEG-4 AVC, 1024x428 (2.40:1), 1772 Kbit/s, 23.976 fps, 0,153 bpp Звук: Аудио 1: 48 kHz, AC3, 5.1 ch, 448 Kbps | RUSDUB Аудио 2: 48 kHz, AC3, 5.1 ch, 384 Kbps | RUS Михаил Чадов Аудио 3: 48 kHz, AC3, 2.1 ch, 192 Kbps | UKR DUB Аудио 4: 48 kHz, AC3, 5.1 ch, 448 Kbps | ENG Без какой-либо рекламы
[+] MIGeneral Unique ID : 172467793906866474372786413962467505131 (0x81C016C05D8F24F2B61324C872D873EB) Complete name : D:The.Hitmans.BodyGuard.2017.2xRus.HDRip.AVC.ExKinoRay.mkv Format : Matroska Format version : Version 2 File size : 2.68 GiB Duration : 1 h 58 min Overall bit rate : 3 243 kb/s Movie name : The Hitmans BodyGuard 2017 from ExKinoRay Encoded date : UTC 2017-12-02 20:04:46 Writing application : mkvmerge v5.6.0 ('Kenya Kane') built on May 27 2012 16:44:04 Writing library : libebml v1.2.3 + libmatroska v1.3.0 Video ID : 1 Format : AVC Format/Info : Advanced Video Codec Format profile : High@L4.1 Format settings, CABAC : Yes Format settings, ReFrames : 12 frames Codec ID : V_MPEG4/ISO/AVC Duration : 1 h 58 min Bit rate : 1 772 kb/s Width : 1 024 pixels Height : 428 pixels Display aspect ratio : 2.40:1 Frame rate mode : Constant Frame rate : 23.976 (23976/1000) FPS Color space : YUV Chroma subsampling : 4:2:0 Bit depth : 8 bits Scan type : Progressive Bits/(Pixel*Frame) : 0.169 Stream size : 1.41 GiB (53%) Title : Enigma Writing library : x264 core 152 r2851 ba24899 Encoding settings : cabac=1 / ref=12 / deblock=1:-3:-3 / analyse=0x3:0x113 / me=umh / subme=10 / psy=1 / psy_rd=1.00:0.00 / mixed_ref=1 / me_range=32 / chroma_me=1 / trellis=2 / 8x8dct=1 / cqm=0 / deadzone=21,11 / fast_pskip=1 / chroma_qp_offset=-2 / threads=12 / lookahead_threads=3 / sliced_threads=0 / nr=0 / decimate=0 / interlaced=0 / bluray_compat=0 / constrained_intra=0 / bframes=10 / b_pyramid=2 / b_adapt=2 / b_bias=0 / direct=3 / weightb=1 / open_gop=0 / weightp=2 / keyint=240 / keyint_min=23 / scenecut=40 / intra_refresh=0 / rc_lookahead=40 / rc=2pass / mbtree=0 / bitrate=1772 / ratetol=1.0 / qcomp=0.60 / qpmin=0 / qpmax=51 / qpstep=4 / cplxblur=20.0 / qblur=0.5 / vbv_maxrate=50000 / vbv_bufsize=62500 / nal_hrd=none / filler=0 / ip_ratio=1.40 / pb_ratio=1.30 / aq=3:0.80 Language : English Default : Yes Forced : No Color range : Limited Color primaries : BT.709 Transfer characteristics : BT.709 Matrix coefficients : BT.709 Audio #1 ID : 2 Format : AC-3 Format/Info : Audio Coding 3 Mode extension : CM (complete main) Format settings, Endianness : Big Codec ID : A_AC3 Duration : 1 h 58 min Bit rate mode : Constant Bit rate : 448 kb/s Channel(s) : 6 channels Channel positions : Front: L C R, Side: L R, LFE Sampling rate : 48.0 kHz Frame rate : 31.250 FPS (1536 spf) Compression mode : Lossy Stream size : 379 MiB (14%) Title : Dub (BD Rus) Language : Russian Default : Yes Forced : No Audio #2 ID : 3 Format : AC-3 Format/Info : Audio Coding 3 Mode extension : CM (complete main) Format settings, Endianness : Big Codec ID : A_AC3 Duration : 1 h 58 min Bit rate mode : Constant Bit rate : 384 kb/s Channel(s) : 6 channels Channel positions : Front: L C R, Side: L R, LFE Sampling rate : 48.0 kHz Frame rate : 31.250 FPS (1536 spf) Compression mode : Lossy Stream size : 325 MiB (12%) Title : AVO (Chadov) Language : Russian Default : No Forced : No Audio #3 ID : 4 Format : AC-3 Format/Info : Audio Coding 3 Mode extension : CM (complete main) Format settings, Endianness : Big Codec ID : A_AC3 Duration : 1 h 58 min Bit rate mode : Constant Bit rate : 192 kb/s Channel(s) : 2 channels Channel positions : Front: L R Sampling rate : 48.0 kHz Frame rate : 31.250 FPS (1536 spf) Compression mode : Lossy Stream size : 162 MiB (6%) Language : Ukrainian Default : No Forced : No Audio #4 ID : 5 Format : AC-3 Format/Info : Audio Coding 3 Mode extension : CM (complete main) Format settings, Endianness : Big Codec ID : A_AC3 Duration : 1 h 58 min Bit rate mode : Constant Bit rate : 448 kb/s Channel(s) : 6 channels Channel positions : Front: L C R, Side: L R, LFE Sampling rate : 48.0 kHz Frame rate : 31.250 FPS (1536 spf) Compression mode : Lossy Stream size : 379 MiB (14%) Language : English Default : No Forced : No Text ID : 6 Format : UTF-8 Codec ID : S_TEXT/UTF8 Codec ID/Info : UTF-8 Plain Text Language : English Default : No Forced : No Menu 00:00:00.000 : en:00:00:00.000 00:07:22.942 : en:00:07:22.942 00:13:53.875 : en:00:13:53.875 00:20:23.305 : en:00:20:23.305 00:27:20.138 : en:00:27:20.138 00:32:53.513 : en:00:32:53.513 00:38:25.428 : en:00:38:25.428 00:46:52.977 : en:00:46:52.977 00:56:39.354 : en:00:56:39.354 01:00:23.370 : en:01:00:23.370 01:09:11.397 : en:01:09:11.397 01:16:34.381 : en:01:16:34.381 01:21:11.241 : en:01:21:11.241 01:27:45.093 : en:01:27:45.093 01:35:06.743 : en:01:35:06.743 01:40:37.740 : en:01:40:37.740
Релиз от: Автор релиза:

Всего файлов в раздаче: 1 
The.Hitmans.BodyGuard.2017.2xRus.HDRip.AVC.ExKinoRay.mkv2.68 GB

Похожие раздачи по запросу - Телохранитель
2024-05-03 magnet Телохранитель на фрилансе / Freelance [2023, боевик, комедия, WEB-DLRip-AVC] Dub (Мосфильм-Мастер) 2.18 GB ↑ 1 ↓ 0
2023-12-01 magnet Телохранитель на фрилансе / Freelance (2023) WEB-DLRip-AVC от DoMiNo & селезень | D 1.86 GB ↑ 0 ↓ 0
2023-11-29 magnet Телохранитель на фрилансе / Freelance (2023) UHD WEB-DL-HEVC 2160p от селезень | 4K | HDR | D 9.28 GB ↑ 0 ↓ 0

Кто качает (только для создателя раздачи и модераторов): Локальные пиры отсутствуют

Комментарии


Зарегистрируйтесь чтобы добавить комментарий
Торрент клиент
byTorrent - программа для загрузки торрент-файлов.

Скачать byTorrent.exe (1,5 МБ)

Скачать byTorrent.zip (0,6 МБ)

Поддержи torrent.by
российских рублей
(300 российских рублей это 4$)

Обратная связь rss

End game ©