↑↓torrent.by
Поиск
Логин:  Регистрация
Пароль:

Из глубины / No Way Up (2024) BDRip 720p от MegaPeer | D, P2

download Скачать торрент-файл   magnet Магнитная ссылка Размер: 3.82 GB Раздают: 1 Качают: 0 Добавлен: 2024-05-31 11:00
Пиры будут получены из сети DHT
Последний сидер был замечен сегодня в 20:49
Информация Название: Из глубины Оригинальное название: No Way Up Год выхода: 2024 Жанр: Боевик, триллер, драма, приключения Режиссер: Клаудио Фах В ролях: Софи Макинтош, Келси Грэммер, Филлис Логан, Колм Мини, Уильям Аттенборо, Джеймс Кэрролл Джордан, Джеремия Амур, Грэйс Неттл, Мануэль Пасифик, Дэвид Самартин, Дэвид Дж Биско, Скотт Кокер, Ли Байфорд Описание: Самолет терпит крушение в Тихом океане. Затонувший авиалайнер висит на краю пропасти, а выжившие оказываются в западне воздушного кармана. Запас воздуха постепенно заканчивается, и между пассажирами начинается борьба за выживание. Страна: США Студия: Altitude Film Entertainment, Hyprr Films, Ingenious Film Partners, Sarma Films Продолжительность: 01:30:33 Перевод: * Профессиональный (полное дублирование) | Vox Records | * Профессиональный (двухголосый, закадровый) | ViruseProject | 18 + Файл Качество: BDRip 720p Исходник: No.Way.Up.2024.MULTi.COMPLETE.BLURAY-XORBiTANT Формат: MKV Кодек: MPEG-4 AVC Видео: 1280x532 (2.40:1), 24 fps, MPEG-4 AVC ~ 4004 Kbps avg, 0.245 bit/pixel Аудио: AC3, 48 kHz, 6 ch, ~384.00 kbps avg | русский | DUB | Аудио: E-AC3, 48 kHz, 6 ch, ~384.00 kbps avg | русский | DUB | Аудио: AC3, 48 kHz, 6 ch, ~640.00 kbps avg | русский | DVO | 18 + Аудио: AC3, 48 kHz, 6 ch, ~640.00 kbps avg | английский | Субтитры: Русские (Full), Английские (Full, SDH)
[+] Инфо-файлОбщее Уникальный идентификатор : 216343537206864119995499523397049211741 (0xA2C23FE9987698C389F5A06874295B5D) Полное имя : No.Way.Up.2024.720p.BluRay.DD.5.1.x264-MegaPeer.mkv Формат : Matroska Версия формата : Version 4 Размер файла : 3,82 Гбайт Продолжительность : 1 ч. 30 мин. Общий битрейт : 6 047 Кбит/сек Частота кадров : 24,000 кадра/сек Название фильма : Из глубины / No Way Up (2024) от stillet@MegaPeer Дата кодирования : 2024-05-30 20:24:15 UTC Программа кодирования : mkvmerge v15.0.0 ('Duel with the Devil') 64-bit Библиотека кодирования : libebml v1.3.5 + libmatroska v1.4.5 Обложка : Yes Attachments : cover.jpg Видео Идентификатор : 1 Формат : AVC Формат/Информация : Advanced Video Codec Профиль формата : High@L4.1 Настройки формата : CABAC / 11 Ref Frames Параметр CABAC формата : Да Параметр RefFrames формата : 11 кадров Идентификатор кодека : V_MPEG4/ISO/AVC Продолжительность : 1 ч. 30 мин. Битрейт : 4 004 Кбит/сек Ширина : 1 280 пикселей Высота : 532 пикселя Соотношение сторон дисплея : 2,40:1 Режим частоты кадров : Постоянный Частота кадров : 24,000 кадра/сек Цветовое пространство : YUV Цветовая субдискретизация : 4:2:0 Битовая глубина : 8 бит Тип развёртки : Прогрессивная Бит/(Пиксели*Кадры) : 0.245 Размер потока : 2,53 Гбайт (66%) Библиотека кодирования : x264 core 164 r3156+57M stillet t_mod_New Параметры библиотеки кодирования : cabac=1 / ref=11 / deblock=1:-3:-3 / analyse=0x3:0x113 / me=umh / subme=10 / psy=1 / fade_compensate=0.00 / psy_rd=1.02:0.03 / mixed_ref=1 / me_range=32 / chroma_me=1 / trellis=2 / 8x8dct=1 / cqm=0 / deadzone=21,11 / fast_pskip=0 / chroma_qp_offset=-3 / threads=12 / lookahead_threads=3 / sliced_threads=0 / nr=0 / decimate=0 / interlaced=0 / bluray_compat=0 / constrained_intra=0 / fgo=0 / bframes=11 / b_pyramid=2 / b_adapt=2 / b_bias=0 / direct=3 / weightb=1 / open_gop=0 / weightp=2 / keyint=240 / keyint_min=24 / scenecut=40 / intra_refresh=0 / rc_lookahead=40 / rc=2pass / mbtree=0 / bitrate=4004 / ratetol=1.0 / qcomp=0.60 / qpmin=0:0:0 / qpmax=69:69:69 / qpstep=4 / cplxblur=20.0 / qblur=0.5 / vbv_maxrate=50000 / vbv_bufsize=62500 / nal_hrd=none / filler=0 / ip_ratio=1.40 / pb_ratio=1.30 / aq=1:1.10 / aq-sensitivity=10.00 / aq-factor=1.00:1.00:1.00 / aq2=0 / aq3=0 Язык : Английский По умолчанию : Да Принудительно : Нет Аудио #1 Идентификатор : 2 Формат : AC-3 Формат/Информация : Audio Coding 3 Коммерческое название : Dolby Digital Идентификатор кодека : A_AC3 Продолжительность : 1 ч. 30 мин. Вид битрейта : Постоянный Битрейт : 384 Кбит/сек Канал(-ы) : 6 каналов Расположение каналов : L R C LFE Ls Rs Частота дискретизации : 48,0 КГц Частота кадров : 31,250 кадров/сек (1536 SPF) Метод сжатия : С потерями Размер потока : 249 Мбайт (6%) Заголовок : DUB | Vox Records Язык : Русский Вид сервиса : Complete Main По умолчанию : Да Принудительно : Да AC3_metadata cmixlev : -3.0 dB surmixlev : -3 dB Аудио #2 Идентификатор : 3 Формат : E-AC-3 Формат/Информация : Enhanced AC-3 Коммерческое название : Dolby Digital Plus Идентификатор кодека : A_EAC3 Продолжительность : 1 ч. 30 мин. Вид битрейта : Постоянный Битрейт : 384 Кбит/сек Канал(-ы) : 6 каналов Расположение каналов : L R C LFE Ls Rs Частота дискретизации : 48,0 КГц Частота кадров : 31,250 кадров/сек (1536 SPF) Метод сжатия : С потерями Размер потока : 249 Мбайт (6%) Заголовок : DUB | Vox Records Язык : Русский Вид сервиса : Complete Main По умолчанию : Нет Принудительно : Нет Аудио #3 Идентификатор : 4 Формат : AC-3 Формат/Информация : Audio Coding 3 Коммерческое название : Dolby Digital Идентификатор кодека : A_AC3 Продолжительность : 1 ч. 30 мин. Вид битрейта : Постоянный Битрейт : 640 Кбит/сек Канал(-ы) : 6 каналов Расположение каналов : L R C LFE Ls Rs Частота дискретизации : 48,0 КГц Частота кадров : 31,250 кадров/сек (1536 SPF) Метод сжатия : С потерями Размер потока : 415 Мбайт (11%) Заголовок : DVO | ViruseProject | 18 + Язык : Русский Вид сервиса : Complete Main По умолчанию : Нет Принудительно : Нет AC3_metadata cmixlev : -3.0 dB surmixlev : -3 dB Аудио #4 Идентификатор : 5 Формат : AC-3 Формат/Информация : Audio Coding 3 Коммерческое название : Dolby Digital Идентификатор кодека : A_AC3 Продолжительность : 1 ч. 30 мин. Вид битрейта : Постоянный Битрейт : 640 Кбит/сек Канал(-ы) : 6 каналов Расположение каналов : L R C LFE Ls Rs Частота дискретизации : 48,0 КГц Частота кадров : 31,250 кадров/сек (1536 SPF) Метод сжатия : С потерями Размер потока : 415 Мбайт (11%) Язык : Английский Вид сервиса : Complete Main По умолчанию : Нет Принудительно : Нет AC3_metadata cmixlev : -3.0 dB surmixlev : -3 dB Текст #1 Идентификатор : 6 Формат : UTF-8 Идентификатор кодека : S_TEXT/UTF8 Идентификатор кодека/Информация : UTF-8 Plain Text Продолжительность : 1 ч. 27 мин. Битрейт : 53 бит/сек Частота кадров : 0,183 кадр/сек Число элементов : 958 Размер потока : 34,2 КиБ (0%) Заголовок : Full Язык : Русский По умолчанию : Нет Принудительно : Нет Текст #2 Идентификатор : 7 Формат : UTF-8 Идентификатор кодека : S_TEXT/UTF8 Идентификатор кодека/Информация : UTF-8 Plain Text Продолжительность : 1 ч. 29 мин. Битрейт : 48 бит/сек Частота кадров : 0,238 кадр/сек Число элементов : 1274 Размер потока : 31,6 КиБ (0%) Заголовок : Full Язык : Английский По умолчанию : Нет Принудительно : Нет Текст #3 Идентификатор : 8 Формат : UTF-8 Идентификатор кодека : S_TEXT/UTF8 Идентификатор кодека/Информация : UTF-8 Plain Text Продолжительность : 1 ч. 29 мин. Битрейт : 52 бит/сек Частота кадров : 0,293 кадр/сек Число элементов : 1581 Размер потока : 34,8 КиБ (0%) Заголовок : SDH Язык : Английский По умолчанию : Нет Принудительно : Нет Меню 00:00:00.000 : Chapter 01 00:15:34.915 : Chapter 02 00:29:36.750 : Chapter 03 00:45:31.416 : Chapter 04 00:59:00.750 : Chapter 05 01:14:22.416 : Chapter 06
Релиз:

Всего файлов в раздаче: 1 
No.Way.Up.2024.720p.BluRay.DD.5.1.x264-MegaPeer.mkv3.82 GB

Похожие раздачи по запросу - глубины
2024-06-15 magnet Из глубины / No Way Up (2024) BDRip-HEVC 1080p от HEVC-CLUB | D 6.69 GB ↑ 1 ↓ 7
2024-06-01 magnet Из глубины / No Way Up (2024) BDRip 720p от DoMiNo & селезень | D 3.94 GB ↑ 0 ↓ 1
2024-06-01 magnet Из глубины / No Way Up (2024) BDRip-AVC от DoMiNo & селезень | D 1.46 GB ↑ 1 ↓ 4
2024-06-01 magnet Из глубины / No Way Up (2024) BDRemux 1080p | D, P2 23.93 GB ↑ 0 ↓ 2
2024-06-01 magnet Из глубины / No Way Up (2024) BDRip-AVC от New-Team | D, P2 2.14 GB ↑ 0 ↓ 2
2024-05-31 magnet Из глубины / No Way Up (2024) BDRip 1080p от MegaPeer | D, P2 8.79 GB ↑ 0 ↓ 4
2024-05-31 magnet Из глубины / No Way Up (2024) BDRip от MegaPeer | D 1.46 GB ↑ 0 ↓ 1

Комментарии


Зарегистрируйтесь чтобы добавить комментарий
Торрент клиент
byTorrent - программа для загрузки торрент-файлов.

Скачать byTorrent.exe (1,5 МБ)

Скачать byTorrent.zip (0,6 МБ)

Поддержи torrent.by
российских рублей
(300 российских рублей это 4$)

Обратная связь rss

End game ©