↑↓torrent.by
Поиск
Логин:  Регистрация
Пароль:

Таро: Карта смерти / Tarot (2024) WEB-DL 1080p от New-Team | P, A | HDRezka Studio, Есарев

download Скачать торрент-файл   magnet Магнитная ссылка Размер: 4.61 GB Добавлен: 2024-05-31 11:00
Пиры будут получены из сети DHT
Последний сидер был замечен сегодня в 07:11
Таро: Карта смерти / Tarot Год выпуска: 2024 Выпущено: США, Сербия, Alloy Entertainment, Capstone Pictures, Ground Control, Screen Gems Жанр: Ужасы Режиссер: Спенсер Коэн / Spenser Cohen, Анна Халберг / Anna Halberg В ролях: Харриет Слейтер, Эдейн Брэдли, Джейкоб Баталон, Авантика, Умберли Гонсалес, Вольфганг Новограц, Ларсен Томпсон, Олуэн Фуэре, Сунчика Миланович, Алан Уэллс, Анна Халберг, Кевин Корнуолл, Джосс Картер, Джеймс Суонтон О фильме: Когда компания друзей безрассудно нарушает священное правило гадания на Таро — никогда не использовать чужую колоду — они неосознанно высвобождают зло, запертое в проклятых картах. Один за другим они оказываются лицом к лицу с судьбой и вступают в гонку со смертью, чтобы избежать будущего, предсказанного в их гаданиях. Продолжительность: 01:32:11 Перевод: #1: Профессиональный (многоголосый, закадровый) | HDRezka Studio #2: Авторский (одноголосый, закадровый) | Д. Есарев | 18 + Субтитры: английские. Раздача от: Автор релиза: JNS82. Формат: MKV Качество: WEB-DL 1080p | AMZN Видео: MPEG-4 AVC, (2,40:1), 1920x800, 5881 Кбит/с, 23,976 fps Аудио #1: 48 kHz, AC3 Dolby Digital, 2/0 (L,R) ch, ~ 192 kbps | RUS | HDRezka Studio Аудио #2: 48 kHz, AC3 Dolby Digital, 3/2 (L,C,R,l,r) + LFE ch, ~ 448 kbps | RUS | Д. Есарев | 18 + Аудио #3: 48 kHz, E-AC3 Dolby Digital, 3/2 (L,C,R,l,r) + LFE ch, ~ 640 kbps | ENG |
[+] MediaInfoОбщее Уникальный идентификатор : 28518199802526651422557997996417462092 (0x157467CE957BA0DEB68BD6AF178FAF4C) Полное имя : D:TorrentsTarot.2024.1080p.AMZN_от New-Team.mkv Формат : Matroska Версия формата : Version 4 Размер файла : 4,61 Гбайт Продолжительность : 1 ч. 32 м. Общий поток : 7 164 Кбит/сек Название фильма : Tarot.2024.1080p.AMZN_от New-Team Дата кодирования : UTC 2024-05-31 04:31:59 Программа кодирования : mkvmerge v79.0 ('Funeral Pyres') 64-bit Библиотека кодирования : libebml v1.4.4 + libmatroska v1.7.1 Видео Идентификатор : 1 Формат : AVC Формат/Информация : Advanced Video Codec Профиль формата : High@L4 Настройки формата : CABAC / 4 Ref Frames Параметр CABAC формата : Да Параметр RefFrames формата : 4 кадра Идентификатор кодека : V_MPEG4/ISO/AVC Продолжительность : 1 ч. 32 м. Вид битрейта : Постоянный Битрейт : 5 881 Кбит/сек Номинальный битрейт : 10 000 Кбит/сек Ширина : 1 920 пикселей Высота : 800 пикселей Соотношение сторон : 2,40:1 Режим частоты кадров : Постоянный Частота кадров : 23,976 (24000/1001) кадра/сек Цветовое пространство : YUV Субдискретизация насыщенности : 4:2:0 Битовая глубина : 8 бит Тип развёртки : Прогрессивная Бит/(Пиксели*Кадры) : 0.160 Размер потока : 3,79 Гбайт (82%) Язык : English Default : Да Forced : Нет Цветовой диапазон : Limited Основные цвета : BT.709 Характеристики трансфера : BT.709 Коэффициенты матрицы : BT.709 Аудио #1 Идентификатор : 2 Формат : AC-3 Формат/Информация : Audio Coding 3 Коммерческое название : Dolby Digital Идентификатор кодека : A_AC3 Продолжительность : 1 ч. 32 м. Вид битрейта : Постоянный Битрейт : 192 Кбит/сек Каналы : 2 канала Channel layout : L R Частота : 48,0 КГц Частота кадров : 31,250 кадров/сек (1536 SPF) Метод сжатия : С потерями Размер потока : 127 Мбайт (3%) Заголовок : MVO - HDRezka Studio Язык : Russian Service kind : Complete Main Default : Да Forced : Нет Аудио #2 Идентификатор : 3 Формат : AC-3 Формат/Информация : Audio Coding 3 Коммерческое название : Dolby Digital Идентификатор кодека : A_AC3 Продолжительность : 1 ч. 32 м. Вид битрейта : Постоянный Битрейт : 448 Кбит/сек Каналы : 6 каналов Channel layout : L R C LFE Ls Rs Частота : 48,0 КГц Частота кадров : 31,250 кадров/сек (1536 SPF) Метод сжатия : С потерями Размер потока : 295 Мбайт (6%) Заголовок : AVO - Д. Есарев | 18 + Язык : Russian Service kind : Complete Main Default : Нет Forced : Нет Аудио #3 Идентификатор : 4 Формат : E-AC-3 Формат/Информация : Enhanced AC-3 Коммерческое название : Dolby Digital Plus Идентификатор кодека : A_EAC3 Продолжительность : 1 ч. 32 м. Вид битрейта : Постоянный Битрейт : 640 Кбит/сек Каналы : 6 каналов Channel layout : L R C LFE Ls Rs Частота : 48,0 КГц Частота кадров : 31,250 кадров/сек (1536 SPF) Метод сжатия : С потерями Размер потока : 422 Мбайт (9%) Заголовок : Original Язык : English Service kind : Complete Main Default : Нет Forced : Нет Текст Идентификатор : 5 Формат : UTF-8 Идентификатор кодека : S_TEXT/UTF8 Идентификатор кодека/Информация : UTF-8 Plain Text Продолжительность : 1 ч. 31 м. Битрейт : 57 бит/сек Count of elements : 1234 Размер потока : 38,3 Кбайт (0%) Заголовок : Язык : English Default : Нет Forced : Нет Меню 00:00:00.000 : en:Studio Logo 00:00:44.000 : en:Scene 2 00:00:53.000 : en:Scene 3 00:03:58.000 : en:Scene 4 00:04:04.000 : en:Scene 5 00:09:59.000 : en:Scene 6 00:16:58.000 : en:Title Sequence 00:17:04.000 : en:Scene 8 00:21:02.000 : en:Scene 9 00:22:02.000 : en:Scene 10 00:23:44.000 : en:Scene 11 00:30:02.000 : en:Scene 12 00:35:01.000 : en:Scene 13 00:40:34.000 : en:Scene 14 00:48:48.000 : en:Scene 15 00:53:32.000 : en:Scene 16 00:59:50.000 : en:Scene 17 00:59:58.000 : en:Scene 18 01:00:18.000 : en:Scene 19 01:07:53.000 : en:Scene 20 01:08:50.000 : en:Scene 21 01:09:52.000 : en:Scene 22 01:09:56.000 : en:Scene 23 01:16:19.000 : en:Scene 24 01:23:09.000 : en:Scene 25 01:25:30.000 : en:End Credits

Всего файлов в раздаче: 1 
Tarot.2024.1080p.AMZN_от New-Team.mkv4.61 GB

Похожие раздачи по запросу - Таро
2024-06-04 magnet Таро: Карта смерти / Tarot (2024) WEB-DLRip от New-Team | D 1.46 GB ↑ 0 ↓ 0
2024-06-04 magnet Таро: Карта смерти / Tarot (2024) WEB-DL 720p от селезень | D, P, A 2.47 GB ↑ 0 ↓ 1
2024-06-04 magnet Таро: Карта смерти / Tarot (2024) WEB-DL 1080p от New-Team | D, P, A 4.86 GB ↑ 1 ↓ 4
2024-06-04 magnet Таро: Карта смерти / Tarot (2024) WEB-DLRip-AVC | D, P 1.73 GB ↑ 7 ↓ 0
2024-05-31 magnet Таро: Карта смерти / Tarot (2024) WEB-DL 720p от селезень | P, A | HDRezka Studio, Есарев 2.23 GB ↑ 0 ↓ 0
2024-05-31 magnet Таро: Карта смерти / Tarot (2024) WEB-DLRip-AVC | P, A | HDRezka Studio, Есарев 1.78 GB ↑ 0 ↓ 0
2024-05-29 magnet Таро: Карта смерти / Tarot (2024) WEB-DLRip от New-Team | A | Есарев 1.46 GB ↑ 0 ↓ 0

Кто качает (только для создателя раздачи и модераторов): Локальные пиры отсутствуют

Комментарии


Зарегистрируйтесь чтобы добавить комментарий
Торрент клиент
byTorrent - программа для загрузки торрент-файлов.

Скачать byTorrent.exe (1,5 МБ)

Скачать byTorrent.zip (0,6 МБ)

Поддержи torrent.by
российских рублей
(300 российских рублей это 4$)

Обратная связь rss

End game ©