↑↓torrent.by
Поиск
Логин:  Регистрация
Пароль:

Атлас / Atlas [2024, фантастика, боевик, драма, WEB-DLRip-AVC] Dub (Videofilm International Ltd.)

download Скачать торрент-файл   magnet Магнитная ссылка Размер: 2.18 GB Раздают: 1 Качают: 3 Добавлен: il68k 2024-05-31 13:51
Пиры будут получены из сети DHT
Последний сидер был замечен сегодня в 22:58
Атлас / Atlas

Страна: США Жанр: фантастика, боевик, драма Год выпуска: 2024 Продолжительность: 02:00:05
Перевод: Профессиональный (дублированный) | Videofilm International Ltd. Субтитры: русские (forced) Оригинальная аудиодорожка: нет
Режиссер: Брэд Пейтон
В ролях: Дженнифер Лопес, Симу Лю, Марк Стронг, Стерлинг К. Браун, Грег Кохан, Абрахам Попула, Лана Паррия, Бриелла Гуиса, Чарли Хьюсон, Адия Смит-Эрикссон, Логан Хант, Джаред Симабукуро, Альфредо Таварес, Дженис Ахерн
Описание: Специалистка по данным Атлас Шепард принимает участие в охоте за новейшим ИИ — роботом Харланом, установившим, что для прекращения войн надо истребить человечество. Операция по его поимке идёт наперекосяк, и андроид оказывается единственным, кто может помочь Атлас в спасении цивилизации.

Качество видео: WEB-DLRip-AVC Формат видео: MKV Видео: 1072x448 (2.40:1), 24.000 fps, AVC, ~2209 Kbps, 0.192 bits/pixel Аудио: Russian, 48.0 KHz, AC3, 6 ch, 384 Kbps Релиз от: порошков
[+] MediaInfo
Формат                                   : Matroska
Версия формата                           : Version 4
Размер файла                             : 2,18 Гбайт
Продолжительность                        : 2 ч. 0 мин.
Режим общего битрейта                    : Переменный
Общий битрейт                            : 2 595 Кбит/сек
Частота кадров                           : 24,000 кадра/сек
Название фильма                          : Atlas | Rip by порошков
Дата кодирования                         : 2024-05-25 07:42:44 UTC
Программа кодирования                    : mkvmerge v84.0 ('Sleeper') 64-bit
Библиотека кодирования                   : libebml v1.4.5 + libmatroska v1.7.1

Видео
Идентификатор                            : 1
Формат                                   : AVC
Формат/Информация                        : Advanced Video Codec
Профиль формата                          : High@L4.1
Настройки формата                        : CABAC / 16 Ref Frames
Параметр CABAC формата                   : Да
Параметр RefFrames формата               : 16 кадров
Идентификатор кодека                     : V_MPEG4/ISO/AVC
Продолжительность                        : 2 ч. 0 мин.
Вид битрейта                             : Переменный
Битрейт                                  : 2 209 Кбит/сек
Максимальный битрейт                     : 62,5 Мбит/сек
Ширина                                   : 1 072 пикселя
Высота                                   : 448 пикселей
Соотношение сторон дисплея               : 2,39:1
Режим частоты кадров                     : Постоянный
Частота кадров                           : 24,000 кадра/сек
Цветовое пространство                    : YUV
Цветовая субдискретизация                : 4:2:0
Битовая глубина                          : 8 бит
Тип развёртки                            : Прогрессивная
Бит/(Пиксели*Кадры)                      : 0.192
Размер потока                            : 1,85 Гбайт (85%)
Библиотека кодирования                   : x264 core 164 r3164 c196240
Параметры библиотеки кодирования         : cabac=1 / ref=16 / deblock=1:-1:-1 / analyse=0x3:0x133 / me=umh / subme=10 / psy=1 / psy_rd=1.00:0.15 / mixed_ref=1 / me_range=24 / chroma_me=1 / trellis=2 / 8x8dct=1 / cqm=0 / deadzone=21,11 / fast_pskip=1 / chroma_qp_offset=-3 / threads=16 / lookahead_threads=3 / sliced_threads=0 / nr=0 / decimate=1 / interlaced=0 / bluray_compat=0 / constrained_intra=0 / bframes=16 / b_pyramid=2 / b_adapt=2 / b_bias=0 / direct=3 / weightb=1 / open_gop=0 / weightp=2 / keyint=240 / keyint_min=24 / scenecut=40 / intra_refresh=0 / rc_lookahead=60 / rc=2pass / mbtree=1 / bitrate=2209 / ratetol=1.0 / qcomp=0.60 / qpmin=0 / qpmax=69 / qpstep=4 / cplxblur=20.0 / qblur=0.5 / vbv_maxrate=62500 / vbv_bufsize=50000 / nal_hrd=vbr / filler=0 / ip_ratio=1.40 / aq=1:1.00
По умолчанию                             : Да
Принудительно                            : Нет

Аудио
Идентификатор                            : 2
Формат                                   : AC-3
Формат/Информация                        : Audio Coding 3
Коммерческое название                    : Dolby Digital
Идентификатор кодека                     : A_AC3
Продолжительность                        : 2 ч. 0 мин.
Вид битрейта                             : Постоянный
Битрейт                                  : 384 Кбит/сек
Канал(-ы)                                : 6 каналов
Расположение каналов                     : L R C LFE Ls Rs
Частота дискретизации                    : 48,0 КГц
Частота кадров                           : 31,250 кадров/сек (1536 SPF)
Метод сжатия                             : С потерями
Размер потока                            : 330 Мбайт (15%)
Язык                                     : Русский
Вид сервиса                              : Complete Main
По умолчанию                             : Да
Принудительно                            : Нет
Нормализация звука речи                  : -27 dB
compr                                    : -0.28 dB
cmixlev                                  : -3.0 dB
surmixlev                                : -3 dB
mixlevel                                 : 285 dB
roomtyp                                  : 3
ltrtcmixlev                              : -3.0 dB
ltrtsurmixlev                            : -3.0 dB
lorocmixlev                              : -3.0 dB
lorosurmixlev                            : -3.0 dB
dialnorm_Average                         : -27 dB
dialnorm_Minimum                         : -27 dB
dialnorm_Maximum                         : -27 dB

Текст
Идентификатор                            : 3
Формат                                   : UTF-8
Идентификатор кодека                     : S_TEXT/UTF8
Идентификатор кодека/Информация          : UTF-8 Plain Text
Продолжительность                        : 1 ч. 48 мин.
Битрейт                                  : 2 бит/сек
Частота кадров                           : 0,009 кадр/сек
Число элементов                          : 57
Размер потока                            : 1,88 КиБ (0%)
Заголовок                                : forced
Язык                                     : Русский
По умолчанию                             : Да
Принудительно                            : Нет
[+] Скриншоты

Всего файлов в раздаче: 1 
Атлас_2024_WEB-DLRip-AVC.mkv2.18 GB

Похожие раздачи по запросу - Атлас
2024-06-14 magnet Атлас / Atlas (2024) WEB-DLRip-AVC от ExKinoRay | D 745.83 MB ↑ 0 ↓ 0
2024-05-28 magnet Атлас / Atlas (2024) WEB-DLRip-AVC | КПК | D | Netflix | UKR 544.78 MB ↑ 0 ↓ 0
2024-05-28 magnet Атлас / Atlas (2024) WEB-DLRip от ExKinoRay | P 745.76 MB ↑ 1 ↓ 0
2024-05-27 magnet Атлас / Atlas (2024) WEB-DL-HEVC 2160p | 4K | Dolby Vision TV | D 15.65 GB ↑ 2 ↓ 2
2024-05-27 magnet Атлас / Atlas (2024) WEB-DL 1080p от Jaskier | P 4.86 GB ↑ 0 ↓ 3
2024-05-26 magnet Атлас / Atlas (2024) UHD WEB-DL-HEVC 2160p | 4K | SDR | D, P2, L 10.48 GB ↑ 0 ↓ 2
2024-05-26 magnet Атлас / Atlas (2024) WEB-DLRip-AVC | КПК | D 544.80 MB ↑ 0 ↓ 0

Кто качает (только для создателя раздачи и модераторов):
ПользовательIP:портОтдалПринялОстатокСидируетТоррент клиентОбновился
1 Аноним 91.122.9.160:24568 449.03 MB 2.18 GB 0.00 B да -UT360S- 22:58 2024-06-17
2 Аноним 104.5.155.178:32000 816.00 kB 821.45 MB 2.10 GB нет -qB4390- 23:05 2024-06-17
3 Аноним 114.185.217.62:38529 2.19 MB 773.08 MB 2.10 GB нет -qB4390- 22:59 2024-06-17
4 Аноним 133.251.211.46:32000 0.00 B 1.33 GB 2.11 GB нет -qB4390- 23:06 2024-06-17

Комментарии


Зарегистрируйтесь чтобы добавить комментарий
Торрент клиент
byTorrent - программа для загрузки торрент-файлов.

Скачать byTorrent.exe (1,5 МБ)

Скачать byTorrent.zip (0,6 МБ)

Поддержи torrent.by
российских рублей
(300 российских рублей это 4$)

Обратная связь rss

End game ©