↑↓torrent.by
Поиск
Логин:  Регистрация
Пароль:

Black Sabbath - Forbidden [Tony Iommi Remix, 24Bit, Hi-Res] (1995/2024) FLAC

download Скачать торрент-файл   magnet Магнитная ссылка Размер: 613.40 MB Добавлен: 2024-05-31 17:00
Пиры будут получены из сети DHT
Последний сидер был замечен 2024-06-04 11:31
Black Sabbath - Forbidden (1995) Tony Iommi Remix, 2024, BMG Rights Management (UK) Limited Жанр: Heavy-Metal Издание: BMG Rights Management (UK) Limited Источник: qobuz Продолжительность: 00:48:06 Кодек: FLAC 24/44.1 Битрейт: Lossless|WEB-DL Тип рипа: tracks Треклист: 01. The Illusion of Power (4:50) 02. Get a Grip (4:02) 03. Can't Get Close Enough (4:32) 04. Shaking Off the Chains (4:08) 05. I Won't Cry for You (5:25) 06. Guilty as Hell (3:30) 07. Sick and Tired (3:31) 08. Rusty Angels (5:14) 09. Forbidden (3:47) 10. Kiss of Death (6:12) 11. Loser Gets It All (2:57)
[+] Отчёт DR: -------------------------------------------------------------------------------- Analyzed: Black Sabbath / Forbidden (2024 Tony Iommi Remix) -------------------------------------------------------------------------------- DR Peak RMS Duration Track -------------------------------------------------------------------------------- DR7 -0.20 dB -9.18 dB 4:50 01-The Illusion of Power DR6 -0.20 dB -7.56 dB 4:02 02-Get a Grip DR7 -0.20 dB -10.38 dB 4:32 03-Can't Get Close Enough DR7 -0.20 dB -7.81 dB 4:08 04-Shaking Off the Chains DR6 -0.20 dB -8.90 dB 5:25 05-I Won't Cry for You DR7 -0.20 dB -8.02 dB 3:30 06-Guilty as Hell DR6 -0.20 dB -7.79 dB 3:31 07-Sick and Tired DR7 -0.20 dB -8.05 dB 5:14 08-Rusty Angels DR8 -0.20 dB -9.27 dB 3:47 09-Forbidden DR6 -0.20 dB -9.44 dB 6:12 10-Kiss of Death DR6 -0.20 dB -7.26 dB 2:57 11-Loser Gets It All -------------------------------------------------------------------------------- Number of tracks: 11 Official DR value: DR7 Samplerate: 44100 Hz Channels: 2 Bits per sample: 24 Bitrate: 1754 kbps Codec: FLAC ================================================================================

Всего файлов в раздаче: 12 
01 The Illusion of Power.flac59.31 MB
02 Get a Grip.flac53.01 MB
03 Can't Get Close Enough.flac53.26 MB
04 Shaking Off the Chains.flac54.23 MB
05 I Won't Cry for You.flac65.71 MB
06 Guilty as Hell.flac47.20 MB
07 Sick and Tired.flac46.66 MB
08 Rusty Angels.flac67.58 MB
09 Forbidden.flac49.49 MB
10 Kiss of Death.flac75.60 MB
Показать все файлы

Похожие раздачи по запросу - Black
Сегодня magnet Сталкер. Черная плесень / Black Mold (2023) WEB-DL 1080p от ELEKTRI4KA | D 3.77 GB ↑ 1 ↓ 10
Сегодня magnet Сталкер. Черная плесень / Black Mold (2023) WEB-DLRip от ELEKTRI4KA | D 1.46 GB ↑ 0 ↓ 10
Сегодня magnet Черная книга няни / Babysitter's Black Book (2015) WEB-DLRip-AVC от ExKinoRay | P 2.14 GB ↑ 1 ↓ 0
Вчера magnet Black Sabbath - Anno Domini [Reissue, Remastered 1989-1995] (2024) FLAC 1.57 GB ↑ 0 ↓ 0
2024-06-16 magnet Black Country Communion - V (2024) MP3 117.99 MB ↑ 0 ↓ 0
2024-06-15 magnet Black Country Communion - V [24Bit, Hi-Res] (2024) FLAC 603.46 MB ↑ 0 ↓ 0
2024-06-09 magnet Обратно во мрак / Back to Black (2024) WEB-DL 1080p от New-Team | P, L 7.53 GB ↑ 0 ↓ 0

Кто качает (только для создателя раздачи и модераторов): Локальные пиры отсутствуют

Комментарии


Зарегистрируйтесь чтобы добавить комментарий
Торрент клиент
byTorrent - программа для загрузки торрент-файлов.

Скачать byTorrent.exe (1,5 МБ)

Скачать byTorrent.zip (0,6 МБ)

Поддержи torrent.by
российских рублей
(300 российских рублей это 4$)

Обратная связь rss

End game ©