↑↓torrent.by
Поиск
Логин:  Регистрация
Пароль:

Нелли Рапп: Как поймать монстра / Nelly Rapp - Monsteragent (2020) HDRip-AVC от DoMiNo | КиноПоиск HD

download Скачать торрент-файл   magnet Магнитная ссылка Размер: 744.65 MB Добавлен: 2024-05-31 17:00
Пиры будут получены из сети DHT
Последний сидер был замечен 2024-05-31 17:00
Информация о фильме Название: Нелли Рапп: Как поймать монстра Оригинальное название: Nelly Rapp - Monsteragent Год выхода: 2020 Жанр: Фэнтези, комедия, приключения, семейный Режиссер: Аманда Адольфссон В ролях: Матильда Гросс, Lily Wahlsteen, Марианне Мёрк, Йохан Рхеборг, Бьёрн Густафссон, Дженс Олин, Эмма Брум, Давид Виберг, Йозефин Йоханссон, Эми Даймонд О фильме: Отправляясь на каникулы в таинственное семейное поместье, Нелли представить не могла, как перевернется её жизнь. Оказывается, её дядя — охотник на монстров, о существовании которых никто и не подозревает. Отныне заветная мечта Нелли — поступить в академию по защите мира от темных сил. Но сначала ей предстоит сдать непростой экзамен, которого нет ни в одной школе: нужно поймать опасное мифическое существо. Выпущено: Швеция / SF Film Production Продолжительность: 01:32:10 Озвучивание: Дублированное | КиноПоиск HD Субтитры: Russian (Forced, Full) Файл Формат: Matroska Качество: HDRip-AVC Видео: 720x302 at 24.000 fps, x264@L4.1, ~1050 kbps Аудио: AAC, 2 ch, ~80 kbps - | Русский | Формат субтитров: softsub (SRT) ***Релиз от: -=DoMiNo=-
[+] M/IGeneral Unique ID : 227044446966733777942378997073404927450 (0xAACF2B7F5A7240AF802807B41DCE9DDA) Complete name : B:Nelly.Rapp.Monsteragent.2020.HDRip-AVC.mkv Format : Matroska Format version : Version 4 File size : 745 MiB Duration : 1 h 32 min Overall bit rate : 1 129 kb/s Encoded date : UTC 2021-11-02 17:07:25 Writing application : mkvmerge v62.0.0 ('Apollo') 64-bit Writing library : libebml v1.4.2 + libmatroska v1.6.4 Cover : Yes Attachments : cover.jpg / cover 2.jpg Video ID : 1 Format : AVC Format/Info : Advanced Video Codec Format profile : High@L4.1 Format settings : CABAC / 14 Ref Frames Format settings, CABAC : Yes Format settings, Reference : 14 frames Codec ID : V_MPEG4/ISO/AVC Duration : 1 h 32 min Bit rate : 1 050 kb/s Width : 720 pixels Height : 302 pixels Display aspect ratio : 2.40:1 Frame rate mode : Constant Frame rate : 24.000 FPS Color space : YUV Chroma subsampling : 4:2:0 Bit depth : 8 bits Scan type : Progressive Bits/(Pixel*Frame) : 0.201 Stream size : 691 MiB (93%) Title : -=DoMiNo=- Writing library : x264 core 164 r3075+55M 97d28bb t_mod_New Encoding settings : cabac=1 / ref=14 / deblock=1:-3:-2 / analyse=0x3:0x133 / me=umh / subme=10 / psy=1 / fade_compensate=0.00 / psy_rd=1.05:0.15 / mixed_ref=1 / me_range=32 / chroma_me=1 / trellis=2 / 8x8dct=1 / cqm=0 / deadzone=21,11 / fast_pskip=0 / chroma_qp_offset=-3 / threads=24 / lookahead_threads=2 / sliced_threads=0 / nr=0 / decimate=0 / interlaced=0 / bluray_compat=0 / constrained_intra=0 / fgo=0 / bframes=10 / b_pyramid=2 / b_adapt=2 / b_bias=0 / direct=3 / weightb=1 / open_gop=0 / weightp=2 / keyint=250 / keyint_min=23 / scenecut=40 / intra_refresh=0 / rc_lookahead=60 / rc=2pass / mbtree=0 / bitrate=1050 / ratetol=1.0 / qcomp=0.60 / qpmin=0:0:0 / qpmax=69:69:69 / qpstep=4 / cplxblur=20.0 / qblur=0.5 / vbv_maxrate=50000 / vbv_bufsize=62500 / nal_hrd=none / filler=0 / ip_ratio=1.40 / pb_ratio=1.30 / aq=2:0.80 / aq-sensitivity=10.00 / aq-factor=1.00:1.00:1.00 / aq2=0 / aq3=0 Language : English Default : Yes Forced : No Color range : Limited Color primaries : BT.709 Transfer characteristics : BT.709 Matrix coefficients : BT.709 Audio ID : 2 Format : AAC LC SBR Format/Info : Advanced Audio Codec Low Complexity with Spectral Band Replication Commercial name : HE-AAC Format settings : Explicit Codec ID : A_AAC-2 Duration : 1 h 32 min Bit rate : 78.7 kb/s Channel(s) : 2 channels Channel layout : L R Sampling rate : 48.0 kHz Frame rate : 23.438 FPS (2048 SPF) Compression mode : Lossy Stream size : 51.9 MiB (7%) Title : DUB Language : Russian Default : Yes Forced : Yes Text #1 ID : 3 Format : UTF-8 Codec ID : S_TEXT/UTF8 Codec ID/Info : UTF-8 Plain Text Duration : 1 h 28 min Bit rate : 1 b/s Count of elements : 16 Stream size : 681 Bytes (0%) Title : Forced Language : Russian Default : Yes Forced : Yes Text #2 ID : 4 Format : UTF-8 Codec ID : S_TEXT/UTF8 Codec ID/Info : UTF-8 Plain Text Duration : 1 h 27 min Bit rate : 69 b/s Count of elements : 1304 Stream size : 44.3 KiB (0%) Language : Russian Default : No Forced : No Menu 00:00:00.000 : :01 00:12:36.625 : :02 00:24:45.167 : :03 00:35:58.667 : :04 00:49:06.917 : :05 01:01:42.958 : :06 01:12:40.417 : :07 01:27:43.708 : :08
[+] Скриншоты

Всего файлов в раздаче: 1 
Nelly.Rapp.Monsteragent.2020.HDRip-AVC.mkv744.65 MB

Похожие раздачи по запросу - Нелли
2024-06-01 magnet Нелли Рапп: Как поймать монстра / Nelly Rapp - Monsteragent (2020) HDRip-AVC от DoMiNo | КиноПоиск HD 1.45 GB ↑ 0 ↓ 0

Кто качает (только для создателя раздачи и модераторов): Локальные пиры отсутствуют

Комментарии


Зарегистрируйтесь чтобы добавить комментарий
Торрент клиент
byTorrent - программа для загрузки торрент-файлов.

Скачать byTorrent.exe (1,5 МБ)

Скачать byTorrent.zip (0,6 МБ)

Поддержи torrent.by
российских рублей
(300 российских рублей это 4$)

Обратная связь rss

End game ©