↑↓torrent.by
Поиск
Логин:  Регистрация
Пароль:

Сквозь горизонт / Event Horizon (1997) BDRip-AVC от DoMiNo & селезень | P, P2 | Remastered | Shout Factory

download Скачать торрент-файл   magnet Магнитная ссылка Размер: 2.58 GB Добавлен: 2024-05-31 17:00
Пиры будут получены из сети DHT
Последний сидер был замечен 2024-05-31 22:54
Информация о фильме Название: Сквозь горизонт Оригинальное название: Event Horizon Год выхода: 1997 Жанр: ужасы, фантастика, триллер, детектив Режиссер: Пол У. С. Андерсон В ролях: Лоренс Фишбёрн, Сэм Нил, Кэтлин Куинлен, Джоэли Ричардсон, Ричард Т. Джонс, Джек Ноузуорти, Джейсон Айзекс, Шон Пертуи, Питер Маринкер, Холли Чант Описание: 2047 год. Спасательный космический корабль послан к границе Солнечной системы с целью выяснить, что произошло с экипажем первого звездолета "Ивент Хорайзон", созданного для путешествий со сверхсветовой скоростью и бесследно исчезнувшего при первом же полете. Внезапно появившийся из ниоткуда, он был обнаружен возле далекой планеты Нептун. Шаг за шагом находя ответы на свои вопросы, команда начинает поддаваться чувству жуткого страха и ужаса, глубина которых соизмерима только с бескрайними просторами космоса... Производство: Великобритания, США / Paramount Pictures Продолжительность: 01:35:54 Перевод 1: Профессиональный (многоголосый закадровый) | Киномания / Супербит Перевод 2: Профессиональный (многоголосый закадровый) | СТС / ДТВ / ТВ3 / Че Перевод 3: Профессиональный (двухголосый закадровый) | Netflix Перевод 4: Профессиональный (двухголосый закадровый) | Премьер Видео Субтитры: Русские (Forced, Full), английские Файл Формат: Matroska Качество: BDRip-AVC | Shout Factory Видео: 1024x436 at 23.976 fps, x264@L4.1, ~2048 kbps Аудио 1: AC3, 6 ch, ~448 kbps - | Русский | | Киномания / Супербит Аудио 2: AC3, 2 ch, ~256 kbps - | Русский | | СТС / ДТВ / ТВ3 / Че Аудио 3: AC3, 6 ch, ~448 kbps - | Русский | | Netflix Аудио 4: AC3, 2 ch, ~192 kbps - | Русский | | Премьер Видео Аудио 5: AC3, 6 ch, ~448 kbps - | Английский | | Original Формат субтитров: softsub (SRT) ***Рип от: -=DoMiNo=-
[+] M/Ix264 : frame I:1065 Avg QP:17.50 size: 52060 x264 : frame P:31972 Avg QP:19.19 size: 21234 x264 : frame B:104929 Avg QP:21.12 size: 7044 x264 : consecutive B-frames: 4.0% 4.2% 9.3% 15.1% 15.3% 34.9% 7.6% 2.5% 1.9% 1.5% 1.3% 0.8% 0.8% 0.5% 0.4% General Complete name : R:Event.Horizon.1997.BDRip.x264.seleZen.mkv Format : Matroska Format version : Version 4 File size : 2.58 GiB Duration : 1 h 35 min Overall bit rate : 3 844 kb/s Frame rate : 23.976 FPS Movie name : Event.Horizon.1997.BDRip.x264.seleZen Encoded date : 2023-10-21 10:55:36 UTC Writing application : mkvmerge v79.0 ('Funeral Pyres') 64-bit Writing library : libebml v1.4.4 + libmatroska v1.7.1 Cover : Yes Attachments : cover.jpg / small_cover.jpg Video ID : 1 Format : AVC Format/Info : Advanced Video Codec Format profile : High@L4.1 Format settings : CABAC / 12 Ref Frames Format settings, CABAC : Yes Format settings, Reference : 12 frames Codec ID : V_MPEG4/ISO/AVC Duration : 1 h 35 min Bit rate : 2 048 kb/s Width : 1 024 pixels Height : 436 pixels Display aspect ratio : 2.35:1 Frame rate mode : Constant Frame rate : 23.976 (24000/1001) FPS Color space : YUV Chroma subsampling : 4:2:0 Bit depth : 8 bits Scan type : Progressive Bits/(Pixel*Frame) : 0.191 Stream size : 1.37 GiB (53%) Title : -=DoMiNo=- Writing library : x264 core 164 r3153 -DoMiNo Encoding settings : cabac=1 / ref=12 / deblock=1:-1:-1 / analyse=0x3:0x133 / me=umh / subme=11 / psy=1 / psy_rd=1.05:0.05 / mixed_ref=1 / me_range=48 / chroma_me=1 / trellis=2 / 8x8dct=1 / cqm=0 / deadzone=21,11 / fast_pskip=0 / chroma_qp_offset=-3 / threads=17 / lookahead_threads=3 / sliced_threads=0 / nr=0 / decimate=0 / interlaced=0 / bluray_compat=0 / constrained_intra=0 / bframes=14 / b_pyramid=2 / b_adapt=2 / b_bias=0 / direct=3 / weightb=1 / open_gop=0 / weightp=2 / keyint=240 / keyint_min=24 / scenecut=40 / intra_refresh=0 / rc_lookahead=60 / rc=crf / mbtree=0 / crf=19.0 / qcomp=0.70 / qpmin=0 / qpmax=69 / qpstep=4 / vbv_maxrate=50000 / vbv_bufsize=62500 / crf_max=0.0 / nal_hrd=none / filler=0 / ip_ratio=1.30 / pb_ratio=1.25 / aq=1:0.80 Language : English Default : Yes Forced : No Audio #1 ID : 2 Format : AC-3 Format/Info : Audio Coding 3 Commercial name : Dolby Digital Codec ID : A_AC3 Duration : 1 h 35 min Bit rate mode : Constant Bit rate : 448 kb/s Channel(s) : 6 channels Channel layout : L R C LFE Ls Rs Sampling rate : 48.0 kHz Frame rate : 31.250 FPS (1536 SPF) Compression mode : Lossy Stream size : 307 MiB (12%) Title : MVO, Киномания / Супербит Language : Russian Service kind : Complete Main Default : Yes Forced : No Audio #2 ID : 3 Format : AC-3 Format/Info : Audio Coding 3 Commercial name : Dolby Digital Codec ID : A_AC3 Duration : 1 h 35 min Bit rate mode : Constant Bit rate : 256 kb/s Channel(s) : 2 channels Channel layout : L R Sampling rate : 48.0 kHz Frame rate : 31.250 FPS (1536 SPF) Compression mode : Lossy Stream size : 176 MiB (7%) Title : MVO, СТС / ДТВ / ТВ3 / Че Language : Russian Service kind : Complete Main Default : No Forced : No Audio #3 ID : 4 Format : AC-3 Format/Info : Audio Coding 3 Commercial name : Dolby Digital Codec ID : A_AC3 Duration : 1 h 35 min Bit rate mode : Constant Bit rate : 448 kb/s Channel(s) : 6 channels Channel layout : L R C LFE Ls Rs Sampling rate : 48.0 kHz Frame rate : 31.250 FPS (1536 SPF) Compression mode : Lossy Stream size : 307 MiB (12%) Title : DVO, Netflix Language : Russian Service kind : Complete Main Default : No Forced : No Audio #4 ID : 5 Format : AC-3 Format/Info : Audio Coding 3 Commercial name : Dolby Digital Codec ID : A_AC3 Duration : 1 h 35 min Bit rate mode : Constant Bit rate : 192 kb/s Channel(s) : 2 channels Channel layout : L R Sampling rate : 48.0 kHz Frame rate : 31.250 FPS (1536 SPF) Compression mode : Lossy Stream size : 132 MiB (5%) Title : DVO, Премьер Видео Language : Russian Service kind : Complete Main Default : No Forced : No Audio #5 ID : 6 Format : AC-3 Format/Info : Audio Coding 3 Commercial name : Dolby Digital Codec ID : A_AC3 Duration : 1 h 35 min Bit rate mode : Constant Bit rate : 448 kb/s Channel(s) : 6 channels Channel layout : L R C LFE Ls Rs Sampling rate : 48.0 kHz Frame rate : 31.250 FPS (1536 SPF) Compression mode : Lossy Stream size : 307 MiB (12%) Title : Original Language : English Service kind : Complete Main Default : No Forced : No Text #1 ID : 7 Format : UTF-8 Codec ID : S_TEXT/UTF8 Codec ID/Info : UTF-8 Plain Text Duration : 1 h 30 min Bit rate : 1 b/s Frame rate : 0.004 FPS Count of elements : 19 Stream size : 812 Bytes (0%) Title : Forced Language : Russian Default : No Forced : No Text #2 ID : 8 Format : UTF-8 Codec ID : S_TEXT/UTF8 Codec ID/Info : UTF-8 Plain Text Duration : 1 h 33 min Bit rate : 77 b/s Frame rate : 0.189 FPS Count of elements : 1063 Stream size : 53.2 KiB (0%) Title : Netflix Language : Russian Default : No Forced : No Text #3 ID : 9 Format : UTF-8 Codec ID : S_TEXT/UTF8 Codec ID/Info : UTF-8 Plain Text Duration : 1 h 30 min Bit rate : 95 b/s Frame rate : 0.192 FPS Count of elements : 1039 Stream size : 63.5 KiB (0%) Title : Киномания Language : Russian Default : No Forced : No Text #4 ID : 10 Format : UTF-8 Codec ID : S_TEXT/UTF8 Codec ID/Info : UTF-8 Plain Text Duration : 1 h 30 min Bit rate : 88 b/s Frame rate : 0.190 FPS Count of elements : 1031 Stream size : 58.7 KiB (0%) Title : Tycoon Language : Russian Default : No Forced : No Text #5 ID : 11 Format : UTF-8 Codec ID : S_TEXT/UTF8 Codec ID/Info : UTF-8 Plain Text Duration : 1 h 26 min Bit rate : 54 b/s Frame rate : 0.196 FPS Count of elements : 1022 Stream size : 34.7 KiB (0%) Title : full Language : English Default : No Forced : No Text #6 ID : 12 Format : UTF-8 Codec ID : S_TEXT/UTF8 Codec ID/Info : UTF-8 Plain Text Duration : 1 h 28 min Bit rate : 54 b/s Frame rate : 0.201 FPS Count of elements : 1061 Stream size : 35.3 KiB (0%) Title : SDH #1 Language : English Default : No Forced : No Text #7 ID : 13 Format : UTF-8 Codec ID : S_TEXT/UTF8 Codec ID/Info : UTF-8 Plain Text Duration : 1 h 31 min Bit rate : 58 b/s Frame rate : 0.292 FPS Count of elements : 1597 Stream size : 38.8 KiB (0%) Title : SDH #2 Language : English Default : No Forced : No Text #8 ID : 14 Format : UTF-8 Codec ID : S_TEXT/UTF8 Codec ID/Info : UTF-8 Plain Text Duration : 1 h 32 min Bit rate : 81 b/s Frame rate : 0.213 FPS Count of elements : 1185 Stream size : 55.3 KiB (0%) Title : Commentary with director Paul W.S. Anderson and producer Jeremy Bolt Language : English Default : No Forced : No Menu 00:00:00.000 : Chapter 01 00:08:27.131 : Chapter 02 00:18:38.117 : Chapter 03 00:26:31.256 : Chapter 04 00:34:00.455 : Chapter 05 00:42:37.638 : Chapter 06 00:51:08.940 : Chapter 07 00:58:17.035 : Chapter 08 01:06:19.892 : Chapter 09 01:14:27.754 : Chapter 10 01:21:20.876 : Chapter 11 01:29:33.076 : Chapter 12
Релиз: Присоединяйся к: Кликай на баннеры.

Всего файлов в раздаче: 1 
Event.Horizon.1997.BDRip.x264.seleZen.mkv2.58 GB

Похожие раздачи по запросу - Сквозь
2024-06-03 magnet Сквозь море ярости / She guo fen nu de hai / Across the Furious Sea (2023) BDRip-AVC от msltel | L1 5.40 GB ↑ 0 ↓ 0
2024-06-02 magnet Сквозь море ярости / She guo fen nu de hai / Across the Furious Sea (2023) BDRip-AVC от msltel | L1 2.90 GB ↑ 0 ↓ 0
2024-05-31 magnet Сквозь горизонт / Event Horizon (1997) BDRip 720p от New-Team | P, P2, A 3.65 GB ↑ 0 ↓ 0
2024-03-17 magnet Сквозь море ярости / Across the Furious Sea / She Guo Fen Nu De Hai (2023) WEBRip 1080p | L1 2.25 GB ↑ 0 ↓ 0
2024-03-16 magnet Мчимся мы сквозь снег / Dashing Through the Snow (2023) WEB-DL 1080p | MVO 4.75 GB ↑ 0 ↓ 0
2023-10-14 magnet Ratchet & Clank: Сквозь миры / Ratchet & Clank: Rift Apart [v 1.922.0.0 + DLC] (2023) PC | RePack от Chovka 27.58 GB ↑ 0 ↓ 0
2023-07-27 magnet Сквозь время (2022) WEB-DL 1080p 3.86 GB ↑ 1 ↓ 0

Кто качает (только для создателя раздачи и модераторов): Локальные пиры отсутствуют

Комментарии


Зарегистрируйтесь чтобы добавить комментарий
Торрент клиент
byTorrent - программа для загрузки торрент-файлов.

Скачать byTorrent.exe (1,5 МБ)

Скачать byTorrent.zip (0,6 МБ)

Поддержи torrent.by
российских рублей
(300 российских рублей это 4$)

Обратная связь rss

End game ©