↑↓torrent.by
Поиск
Логин:  Регистрация
Пароль:

Black Sabbath - Tyr [Remaster, 24Bit, Hi-Res] (1990/2024) FLAC

download Скачать торрент-файл   magnet Магнитная ссылка Размер: 479.48 MB Добавлен: 2024-05-31 17:00
Пиры будут получены из сети DHT
Последний сидер был замечен сегодня в 00:34
Black Sabbath - Tyr (1990) Remaster, 2024, BMG Rights Management Жанр: Heavy-Metal Издание: BMG Rights Management Источник: qobuz Продолжительность: 00:39:19 Кодек: FLAC 24/44.1 Битрейт: Lossless|WEB-DL Тип рипа: tracks Треклист: 01 - Anno Mundi 02 - The Law Maker 03 - Jerusalem 04 - The Sabbath Stones 05 - The Battle of Tyr 06 - Odin's Court 07 - Valhalla 08 - Feels Good to Me 09 - Heaven in Black
[+] Дополнительная информация: Gothic in approach, but crushing guitar riffs galore, Tyr followed Black Sabbath's previous return to the spotlight by less than a year. Again leaning heavily on the darker side of life, or perhaps, death, Tyr is a set of tunes loosely based around the Norse tales of Odin and the gods of war. "Valhalla" is unlike anything the old Sabbath tried, yet still sounds familiar. "The Sabbath Stones" mix myth with metal in a crushing display of musical synthesis. With Tyr, Black Sabbath sound as serious as can be.
[+] Отчёт MI: Общее Полное имя : H:DownloadsBlack Sabbath - Tyr (Remaster) (1990) - 2024�1 - Anno Mundi.flac Формат : FLAC Формат/Информация : Free Lossless Audio Codec Размер файла : 74,8 Мбайт Продолжительность : 6 м. 12 с. Режим общего битрейта : Переменный Общий поток : 1 686 Кбит/сек Альбом : Tyr (Remaster) Альбом/Исполнитель : Black Sabbath / Black Sabbath Трек : Anno Mundi Трек/Положение : 01 Исполнитель : Black Sabbath Продюсер : BMG Rights Management (UK) Limited Кодирование произвёл : ЯОR Метка : BMG Rights Management (UK) Limited Жанр : Heavy Metal Дата записи : 1990 Обложка : Yes Тип обложки : Cover (front) MIME-тип обложки : image/jpeg Примечание : ~ N ~ Аудио Формат : FLAC Формат/Информация : Free Lossless Audio Codec Продолжительность : 6 м. 12 с. Вид битрейта : Переменный Битрейт : 1 683 Кбит/сек Каналы : 2 канала Channel layout : L R Частота : 44,1 КГц Битовая глубина : 24 бит Метод сжатия : Без потерь Размер потока : 74,7 Мбайт (100%) Библиотека кодирования : Tag&Rename MD5 of the unencoded content : 00000000000000000000000000000000 Общее Полное имя : H:DownloadsBlack Sabbath - Tyr (Remaster) (1990) - 2024�2 - The Law Maker.flac Формат : FLAC Формат/Информация : Free Lossless Audio Codec Размер файла : 49,1 Мбайт Продолжительность : 3 м. 54 с. Режим общего битрейта : Переменный Общий поток : 1 755 Кбит/сек Альбом : Tyr (Remaster) Альбом/Исполнитель : Black Sabbath / Black Sabbath Трек : The Law Maker Трек/Положение : 02 Исполнитель : Black Sabbath Продюсер : BMG Rights Management (UK) Limited Кодирование произвёл : ЯОR Метка : BMG Rights Management (UK) Limited Жанр : Heavy Metal Дата записи : 1990 Обложка : Yes Тип обложки : Cover (front) MIME-тип обложки : image/jpeg Примечание : ~ N ~ Аудио Формат : FLAC Формат/Информация : Free Lossless Audio Codec Продолжительность : 3 м. 54 с. Вид битрейта : Переменный Битрейт : 1 751 Кбит/сек Каналы : 2 канала Channel layout : L R Частота : 44,1 КГц Битовая глубина : 24 бит Метод сжатия : Без потерь Размер потока : 49,0 Мбайт (100%) Библиотека кодирования : Tag&Rename MD5 of the unencoded content : 00000000000000000000000000000000 Общее Полное имя : H:DownloadsBlack Sabbath - Tyr (Remaster) (1990) - 2024�3 - Jerusalem.flac Формат : FLAC Формат/Информация : Free Lossless Audio Codec Размер файла : 49,8 Мбайт Продолжительность : 3 м. 59 с. Режим общего битрейта : Переменный Общий поток : 1 741 Кбит/сек Альбом : Tyr (Remaster) Альбом/Исполнитель : Black Sabbath / Black Sabbath Трек : Jerusalem Трек/Положение : 03 Исполнитель : Black Sabbath Продюсер : BMG Rights Management (UK) Limited Кодирование произвёл : ЯОR Метка : BMG Rights Management (UK) Limited Жанр : Heavy Metal Дата записи : 1990 Обложка : Yes Тип обложки : Cover (front) MIME-тип обложки : image/jpeg Примечание : ~ N ~ Аудио Формат : FLAC Формат/Информация : Free Lossless Audio Codec Продолжительность : 3 м. 59 с. Вид битрейта : Переменный Битрейт : 1 737 Кбит/сек Каналы : 2 канала Channel layout : L R Частота : 44,1 КГц Битовая глубина : 24 бит Метод сжатия : Без потерь Размер потока : 49,7 Мбайт (100%) Библиотека кодирования : Tag&Rename MD5 of the unencoded content : 00000000000000000000000000000000 Общее Полное имя : H:DownloadsBlack Sabbath - Tyr (Remaster) (1990) - 2024�4 - The Sabbath Stones.flac Формат : FLAC Формат/Информация : Free Lossless Audio Codec Размер файла : 81,8 Мбайт Продолжительность : 6 м. 48 с. Режим общего битрейта : Переменный Общий поток : 1 681 Кбит/сек Альбом : Tyr (Remaster) Альбом/Исполнитель : Black Sabbath / Black Sabbath Трек : The Sabbath Stones Трек/Положение : 04 Исполнитель : Black Sabbath Продюсер : BMG Rights Management (UK) Limited Кодирование произвёл : ЯОR Метка : BMG Rights Management (UK) Limited Жанр : Heavy Metal Дата записи : 1990 Обложка : Yes Тип обложки : Cover (front) MIME-тип обложки : image/jpeg Примечание : ~ N ~ Аудио Формат : FLAC Формат/Информация : Free Lossless Audio Codec Продолжительность : 6 м. 48 с. Вид битрейта : Переменный Битрейт : 1 678 Кбит/сек Каналы : 2 канала Channel layout : L R Частота : 44,1 КГц Битовая глубина : 24 бит Метод сжатия : Без потерь Размер потока : 81,6 Мбайт (100%) Библиотека кодирования : Tag&Rename MD5 of the unencoded content : 00000000000000000000000000000000 Общее Полное имя : H:DownloadsBlack Sabbath - Tyr (Remaster) (1990) - 2024�5 - The Battle of Tyr.flac Формат : FLAC Формат/Информация : Free Lossless Audio Codec Размер файла : 11,4 Мбайт Продолжительность : 1 м. 8 с. Режим общего битрейта : Переменный Общий поток : 1 395 Кбит/сек Альбом : Tyr (Remaster) Альбом/Исполнитель : Black Sabbath / Black Sabbath Трек : The Battle of Tyr Трек/Положение : 05 Исполнитель : Black Sabbath Продюсер : BMG Rights Management (UK) Limited Кодирование произвёл : ЯОR Метка : BMG Rights Management (UK) Limited Жанр : Heavy Metal Дата записи : 1990 Обложка : Yes Тип обложки : Cover (front) MIME-тип обложки : image/jpeg Примечание : ~ N ~ Аудио Формат : FLAC Формат/Информация : Free Lossless Audio Codec Продолжительность : 1 м. 8 с. Вид битрейта : Переменный Битрейт : 1 382 Кбит/сек Каналы : 2 канала Channel layout : L R Частота : 44,1 КГц Битовая глубина : 24 бит Метод сжатия : Без потерь Размер потока : 11,3 Мбайт (99%) Библиотека кодирования : Tag&Rename MD5 of the unencoded content : 00000000000000000000000000000000 Общее Полное имя : H:DownloadsBlack Sabbath - Tyr (Remaster) (1990) - 2024�6 - Odin's Court.flac Формат : FLAC Формат/Информация : Free Lossless Audio Codec Размер файла : 29,6 Мбайт Продолжительность : 2 м. 42 с. Режим общего битрейта : Переменный Общий поток : 1 523 Кбит/сек Альбом : Tyr (Remaster) Альбом/Исполнитель : Black Sabbath / Black Sabbath Трек : Odin's Court Трек/Положение : 06 Исполнитель : Black Sabbath Продюсер : BMG Rights Management (UK) Limited Кодирование произвёл : ЯОR Метка : BMG Rights Management (UK) Limited Жанр : Heavy Metal Дата записи : 1990 Обложка : Yes Тип обложки : Cover (front) MIME-тип обложки : image/jpeg Примечание : ~ N ~ Аудио Формат : FLAC Формат/Информация : Free Lossless Audio Codec Продолжительность : 2 м. 42 с. Вид битрейта : Переменный Битрейт : 1 518 Кбит/сек Каналы : 2 канала Channel layout : L R Частота : 44,1 КГц Битовая глубина : 24 бит Метод сжатия : Без потерь Размер потока : 29,5 Мбайт (100%) Библиотека кодирования : Tag&Rename MD5 of the unencoded content : 00000000000000000000000000000000 Общее Полное имя : H:DownloadsBlack Sabbath - Tyr (Remaster) (1990) - 2024�7 - Valhalla.flac Формат : FLAC Формат/Информация : Free Lossless Audio Codec Размер файла : 58,5 Мбайт Продолжительность : 4 м. 42 с. Режим общего битрейта : Переменный Общий поток : 1 735 Кбит/сек Альбом : Tyr (Remaster) Альбом/Исполнитель : Black Sabbath / Black Sabbath Трек : Valhalla Трек/Положение : 07 Исполнитель : Black Sabbath Продюсер : BMG Rights Management (UK) Limited Кодирование произвёл : ЯОR Метка : BMG Rights Management (UK) Limited Жанр : Heavy Metal Дата записи : 1990 Обложка : Yes Тип обложки : Cover (front) MIME-тип обложки : image/jpeg Примечание : ~ N ~ Аудио Формат : FLAC Формат/Информация : Free Lossless Audio Codec Продолжительность : 4 м. 42 с. Вид битрейта : Переменный Битрейт : 1 732 Кбит/сек Каналы : 2 канала Channel layout : L R Частота : 44,1 КГц Битовая глубина : 24 бит Метод сжатия : Без потерь Размер потока : 58,4 Мбайт (100%) Библиотека кодирования : Tag&Rename MD5 of the unencoded content : 00000000000000000000000000000000 Общее Полное имя : H:DownloadsBlack Sabbath - Tyr (Remaster) (1990) - 2024�8 - Feels Good to Me.flac Формат : FLAC Формат/Информация : Free Lossless Audio Codec Размер файла : 67,8 Мбайт Продолжительность : 5 м. 44 с. Режим общего битрейта : Переменный Общий поток : 1 654 Кбит/сек Альбом : Tyr (Remaster) Альбом/Исполнитель : Black Sabbath / Black Sabbath Трек : Feels Good to Me Трек/Положение : 08 Исполнитель : Black Sabbath Продюсер : BMG Rights Management (UK) Limited Кодирование произвёл : ЯОR Метка : BMG Rights Management (UK) Limited Жанр : Heavy Metal Дата записи : 1990 Обложка : Yes Тип обложки : Cover (front) MIME-тип обложки : image/jpeg Примечание : ~ N ~ Аудио Формат : FLAC Формат/Информация : Free Lossless Audio Codec Продолжительность : 5 м. 44 с. Вид битрейта : Переменный Битрейт : 1 651 Кбит/сек Каналы : 2 канала Channel layout : L R Частота : 44,1 КГц Битовая глубина : 24 бит Метод сжатия : Без потерь Размер потока : 67,7 Мбайт (100%) Библиотека кодирования : Tag&Rename MD5 of the unencoded content : 00000000000000000000000000000000 Общее Полное имя : H:DownloadsBlack Sabbath - Tyr (Remaster) (1990) - 2024�9 - Heaven in Black.flac Формат : FLAC Формат/Информация : Free Lossless Audio Codec Размер файла : 49,5 Мбайт Продолжительность : 4 м. 5 с. Режим общего битрейта : Переменный Общий поток : 1 689 Кбит/сек Альбом : Tyr (Remaster) Альбом/Исполнитель : Black Sabbath / Black Sabbath Трек : Heaven in Black Трек/Положение : 09 Исполнитель : Black Sabbath Продюсер : BMG Rights Management (UK) Limited Кодирование произвёл : ЯОR Метка : BMG Rights Management (UK) Limited Жанр : Heavy Metal Дата записи : 1990 Обложка : Yes Тип обложки : Cover (front) MIME-тип обложки : image/jpeg Примечание : ~ N ~ Аудио Формат : FLAC Формат/Информация : Free Lossless Audio Codec Продолжительность : 4 м. 5 с. Вид битрейта : Переменный Битрейт : 1 685 Кбит/сек Каналы : 2 канала Channel layout : L R Частота : 44,1 КГц Битовая глубина : 24 бит Метод сжатия : Без потерь Размер потока : 49,4 Мбайт (100%) Библиотека кодирования : Tag&Rename MD5 of the unencoded content : 00000000000000000000000000000000 Общее Полное имя : H:DownloadsBlack Sabbath - Tyr (Remaster) (1990) - 2024folder.jpg Формат : JPEG Размер файла : 7,21 Мбайт Изображения Формат : JPEG Ширина : 4 000 пикселей Высота : 4 000 пикселей Цветовое пространство : YUV Субдискретизация насыщенности : 4:4:4 Битовая глубина : 8 бит Метод сжатия : С потерями Размер потока : 7,21 Мбайт (100%)
[+] DR Log: foobar2000 2.0 / Замер динамического диапазона (DR) 1.1.1 Дата отчёта: 2024-05-31 08:48:48 -------------------------------------------------------------------------------- Анализ: Black Sabbath / Tyr (Remaster) -------------------------------------------------------------------------------- DR Пики RMS Продолжительность трека -------------------------------------------------------------------------------- DR6 -0.24 дБ -9.06 дБ 6:12 01-Anno Mundi DR7 -0.24 дБ -8.26 дБ 3:55 02-The Law Maker DR7 -0.20 дБ -8.41 дБ 4:00 03-Jerusalem DR7 -0.20 дБ -9.25 дБ 6:48 04-The Sabbath Stones DR9 -0.40 дБ -14.09 дБ 1:09 05-The Battle of Tyr DR12 -0.40 дБ -17.19 дБ 2:43 06-Odin's Court DR6 -0.26 дБ -7.70 дБ 4:43 07-Valhalla DR8 -0.34 дБ -10.55 дБ 5:44 08-Feels Good to Me DR7 -0.71 дБ -8.70 дБ 4:06 09-Heaven in Black -------------------------------------------------------------------------------- Количество треков: 9 Реальные значения DR: DR8 Частота: 44100 Гц Каналов: 2 Разрядность: 24 Битрейт: 1685 кбит/с Кодек: FLAC ================================================================================

Всего файлов в раздаче: 10 
01 - Anno Mundi.flac74.84 MB
02 - The Law Maker.flac49.11 MB
03 - Jerusalem.flac49.78 MB
04 - The Sabbath Stones.flac81.75 MB
05 - The Battle of Tyr.flac11.44 MB
06 - Odin's Court.flac29.56 MB
07 - Valhalla.flac58.48 MB
08 - Feels Good to Me.flac67.84 MB
09 - Heaven in Black.flac49.46 MB
folder.jpg7.21 MB

Похожие раздачи по запросу - Black
Сегодня magnet Black Country Communion - V (2024) MP3 117.99 MB ↑ 0 ↓ 0
Вчера magnet Black Country Communion - V [24Bit, Hi-Res] (2024) FLAC 603.46 MB ↑ 0 ↓ 0
2024-06-09 magnet Обратно во мрак / Back to Black (2024) WEB-DL 1080p от New-Team | P, L 7.53 GB ↑ 0 ↓ 0
2024-06-08 magnet Media Player Classic - Black Edition / MPC-BE 1.7.2 Stable + Standalone Filters (2024) PC | + Portable 79.23 MB ↑ 0 ↓ 0
2024-06-05 magnet Black Sabbath - Cross Purposes [24-bit Hi-Res, 2024 Remaster] (1994/2024) FLAC 615.51 MB ↑ 0 ↓ 0
2024-06-03 magnet Black Sabbath - Headless Cross [2024 Remaster] (1989/2024) MP3 104.30 MB ↑ 0 ↓ 0
2024-06-03 magnet Black Sabbath - Cross Purposes [2024 Remaster] (1994/2024) MP3 115.75 MB ↑ 0 ↓ 0

Кто качает (только для создателя раздачи и модераторов): Локальные пиры отсутствуют

Комментарии


Зарегистрируйтесь чтобы добавить комментарий
Торрент клиент
byTorrent - программа для загрузки торрент-файлов.

Скачать byTorrent.exe (1,5 МБ)

Скачать byTorrent.zip (0,6 МБ)

Поддержи torrent.by
российских рублей
(300 российских рублей это 4$)

Обратная связь rss

End game ©