↑↓torrent.by
Поиск
Логин:  Регистрация
Пароль:

Цвет зла: Красный / Kolory zla. Czerwien (2024) WEB-DL 1080p | Sub

download Скачать торрент-файл   magnet Магнитная ссылка Размер: 4.86 GB Добавлен: 2024-05-31 17:00
Пиры будут получены из сети DHT
Последний сидер был замечен 2024-06-04 08:54
Информация о фильме Название: Цвет зла: Красный Оригинальное название: Kolory zla. Czerwien Год выхода: 2024 Жанр: криминал, детектив Режиссер: Адриан Панек В ролях: Майя Осташевска, Якуб Гершал, Зофия Ястржебска, Анджей Конопка, Пшемыслав Блущ, Ян Витеска О фильме: Когда на берегу пляжа в Польше находят тело девушки, прокурор объединяет силы с матерью жертвы в поисках правды. Страна: Польша Продолжительность: 01:52:02 Перевод: субтитры Cубтитры: русские, etc. Оригинальная аудиодорожка: english Файл Качество: WEB-DL 1080p Видео: MPEG-4 AVC Video / 5000 kbps / 1920x1080 / 24.000 fps / 16:9 / High Profile 4 Аудио 1: polish / E-AC-3 / 5.1 / 48 kHz / 640 kbps Аудио 2: english (dub) / E-AC-3 / 5.1 / 48 kHz / 640 kbps
[+] Скриншоты
[+] MediaInfoGeneral Unique ID : 200376029483315947377413444639972454971 (0x96BF05000B78D19E96E0C545C2FCF23B) Complete name : Colors.of.Evil.Red.2024.1080p.NF.WEB-DL.DUAL.DDP5.1.H.264.mkv Format : Matroska Format version : Version 4 / Version 2 File size : 4.86 GiB Duration : 1 h 52 min Overall bit rate mode : Variable Overall bit rate : 6 206 kb/s Encoded date : UTC 2024-05-31 10:03:11 Writing application : mkvmerge v7.0.0 ('Where We Going') 32bit built on Jun 9 2014 15:08:34 Writing library : libebml v1.3.0 + libmatroska v1.4.1 Video ID : 1 Format : AVC Format/Info : Advanced Video Codec Format profile : Main@L4 Format settings, CABAC : Yes Format settings, RefFrames : 3 frames Codec ID : V_MPEG4/ISO/AVC Duration : 1 h 52 min Bit rate mode : Variable Bit rate : 5 000 kb/s Maximum bit rate : 7 500 kb/s Width : 1 920 pixels Height : 1 080 pixels Display aspect ratio : 16:9 Frame rate mode : Constant Frame rate : 24.000 FPS Color space : YUV Chroma subsampling : 4:2:0 Bit depth : 8 bits Scan type : Progressive Bits/(Pixel*Frame) : 0.100 Stream size : 3.85 GiB (79%) Writing library : x264 core 148 r2727 7d026e8 Encoding settings : cabac=1 / ref=3 / deblock=1:0:0 / analyse=0x1:0x111 / me=umh / subme=10 / psy=1 / psy_rd=1.00:0.00 / mixed_ref=1 / me_range=24 / chroma_me=1 / trellis=2 / 8x8dct=0 / cqm=0 / deadzone=21,11 / fast_pskip=1 / chroma_qp_offset=-2 / threads=6 / lookahead_threads=1 / sliced_threads=0 / nr=0 / decimate=1 / interlaced=0 / bluray_compat=0 / stitchable=1 / constrained_intra=0 / bframes=2 / b_pyramid=0 / b_adapt=2 / b_bias=0 / direct=3 / weightb=1 / open_gop=0 / weightp=2 / keyint=240 / keyint_min=121 / scenecut=0 / intra_refresh=0 / rc_lookahead=48 / rc=2pass / mbtree=1 / bitrate=5000 / ratetol=1.0 / qcomp=0.50 / qpmin=6 / qpmax=51 / qpstep=4 / cplxblur=20.0 / qblur=0.5 / vbv_maxrate=7500 / vbv_bufsize=10000 / nal_hrd=vbr / filler=0 / ip_ratio=1.40 / aq=1:1.00 Language : Polish Default : Yes Forced : No Audio #1 ID : 2 Format : E-AC-3 Format/Info : Enhanced Audio Coding 3 Format settings, Endianness : Big Codec ID : A_EAC3 Duration : 1 h 52 min Bit rate mode : Constant Bit rate : 640 kb/s Channel(s) : 6 channels Channel positions : Front: L C R, Side: L R, LFE Sampling rate : 48.0 kHz Frame rate : 187.500 FPS (256 SPF) Compression mode : Lossy Stream size : 513 MiB (10%) Language : Polish Service kind : Complete Main Default : Yes Forced : No Audio #2 ID : 3 Format : E-AC-3 Format/Info : Enhanced Audio Coding 3 Format settings, Endianness : Big Codec ID : A_EAC3 Duration : 1 h 52 min Bit rate mode : Constant Bit rate : 640 kb/s Channel(s) : 6 channels Channel positions : Front: L C R, Side: L R, LFE Sampling rate : 48.0 kHz Frame rate : 187.500 FPS (256 SPF) Compression mode : Lossy Stream size : 513 MiB (10%) Language : English Service kind : Complete Main Default : No Forced : No Text #1 ID : 4 Format : UTF-8 Codec ID : S_TEXT/UTF8 Codec ID/Info : UTF-8 Plain Text Duration : 1 h 50 min Bit rate : 59 b/s Count of elements : 1048 Stream size : 48.2 KiB (0%) Language : Russian Default : Yes Forced : No Text #2 ID : 5 Format : UTF-8 Codec ID : S_TEXT/UTF8 Codec ID/Info : UTF-8 Plain Text Duration : 1 h 45 min Bit rate : 39 b/s Count of elements : 1067 Stream size : 30.6 KiB (0%) Language : Polish Default : No Forced : No Text #3 ID : 6 Format : UTF-8 Codec ID : S_TEXT/UTF8 Codec ID/Info : UTF-8 Plain Text Duration : 1 h 45 min Bit rate : 46 b/s Count of elements : 1247 Stream size : 36.2 KiB (0%) Title : SDH Language : Polish Default : No Forced : No Text #4 ID : 7 Format : UTF-8 Codec ID : S_TEXT/UTF8 Codec ID/Info : UTF-8 Plain Text Duration : 1 h 50 min Bit rate : 37 b/s Count of elements : 993 Stream size : 30.0 KiB (0%) Language : English Default : No Forced : No Text #5 ID : 8 Format : UTF-8 Codec ID : S_TEXT/UTF8 Codec ID/Info : UTF-8 Plain Text Duration : 1 h 46 min Bit rate : 0 b/s Count of elements : 15 Stream size : 368 Bytes (0%) Title : Dub | Forced Language : English Default : No Forced : Yes Text #6 ID : 9 Format : UTF-8 Codec ID : S_TEXT/UTF8 Codec ID/Info : UTF-8 Plain Text Duration : 1 h 46 min Bit rate : 46 b/s Count of elements : 1145 Stream size : 36.5 KiB (0%) Title : Dub Language : English Default : No Forced : No Text #7 ID : 10 Format : UTF-8 Codec ID : S_TEXT/UTF8 Codec ID/Info : UTF-8 Plain Text Duration : 1 h 50 min Bit rate : 53 b/s Count of elements : 1388 Stream size : 43.1 KiB (0%) Title : Dub | SDH Language : English Default : No Forced : No Text #8 ID : 11 Format : UTF-8 Codec ID : S_TEXT/UTF8 Codec ID/Info : UTF-8 Plain Text Duration : 1 h 50 min Bit rate : 61 b/s Count of elements : 1063 Stream size : 49.5 KiB (0%) Language : Arabic Default : No Forced : No Text #9 ID : 12 Format : UTF-8 Codec ID : S_TEXT/UTF8 Codec ID/Info : UTF-8 Plain Text Duration : 1 h 45 min Bit rate : 37 b/s Count of elements : 1009 Stream size : 29.3 KiB (0%) Language : Czech Default : No Forced : No Text #10 ID : 13 Format : UTF-8 Codec ID : S_TEXT/UTF8 Codec ID/Info : UTF-8 Plain Text Duration : 1 h 50 min Bit rate : 35 b/s Count of elements : 1017 Stream size : 28.5 KiB (0%) Language : Danish Default : No Forced : No Text #11 ID : 14 Format : UTF-8 Codec ID : S_TEXT/UTF8 Codec ID/Info : UTF-8 Plain Text Duration : 1 h 50 min Bit rate : 36 b/s Count of elements : 1053 Stream size : 29.6 KiB (0%) Language : German Default : No Forced : No Text #12 ID : 15 Format : UTF-8 Codec ID : S_TEXT/UTF8 Codec ID/Info : UTF-8 Plain Text Duration : 1 h 50 min Bit rate : 60 b/s Count of elements : 1067 Stream size : 48.5 KiB (0%) Language : Greek Default : No Forced : No Text #13 ID : 16 Format : UTF-8 Codec ID : S_TEXT/UTF8 Codec ID/Info : UTF-8 Plain Text Duration : 1 h 50 min Bit rate : 35 b/s Count of elements : 1061 Stream size : 28.7 KiB (0%) Title : Latin American Language : Spanish Default : No Forced : No Text #14 ID : 17 Format : UTF-8 Codec ID : S_TEXT/UTF8 Codec ID/Info : UTF-8 Plain Text Duration : 1 h 46 min Bit rate : 36 b/s Count of elements : 1061 Stream size : 28.5 KiB (0%) Language : Spanish Default : No Forced : No Text #15 ID : 18 Format : UTF-8 Codec ID : S_TEXT/UTF8 Codec ID/Info : UTF-8 Plain Text Duration : 1 h 50 min Bit rate : 36 b/s Count of elements : 909 Stream size : 29.8 KiB (0%) Language : Finnish Default : No Forced : No Text #16 ID : 19 Format : UTF-8 Codec ID : S_TEXT/UTF8 Codec ID/Info : UTF-8 Plain Text Duration : 1 h 46 min Bit rate : 37 b/s Count of elements : 1062 Stream size : 29.1 KiB (0%) Language : fil Default : No Forced : No Text #17 ID : 20 Format : UTF-8 Codec ID : S_TEXT/UTF8 Codec ID/Info : UTF-8 Plain Text Duration : 1 h 50 min Bit rate : 36 b/s Count of elements : 1047 Stream size : 29.3 KiB (0%) Language : French Default : No Forced : No Text #18 ID : 21 Format : UTF-8 Codec ID : S_TEXT/UTF8 Codec ID/Info : UTF-8 Plain Text Duration : 1 h 50 min Bit rate : 58 b/s Count of elements : 1067 Stream size : 47.2 KiB (0%) Language : Hebrew Default : No Forced : No Text #19 ID : 22 Format : UTF-8 Codec ID : S_TEXT/UTF8 Codec ID/Info : UTF-8 Plain Text Duration : 1 h 50 min Bit rate : 31 b/s Count of elements : 1034 Stream size : 25.3 KiB (0%) Language : Croatian Default : No Forced : No Text #20 ID : 23 Format : UTF-8 Codec ID : S_TEXT/UTF8 Codec ID/Info : UTF-8 Plain Text Duration : 1 h 50 min Bit rate : 35 b/s Count of elements : 1035 Stream size : 28.7 KiB (0%) Language : Hungarian Default : No Forced : No Text #21 ID : 24 Format : UTF-8 Codec ID : S_TEXT/UTF8 Codec ID/Info : UTF-8 Plain Text Duration : 1 h 50 min Bit rate : 35 b/s Count of elements : 1059 Stream size : 28.4 KiB (0%) Language : Indonesian Default : No Forced : No Text #22 ID : 25 Format : UTF-8 Codec ID : S_TEXT/UTF8 Codec ID/Info : UTF-8 Plain Text Duration : 1 h 50 min Bit rate : 34 b/s Count of elements : 1051 Stream size : 28.3 KiB (0%) Language : Italian Default : No Forced : No Text #23 ID : 26 Format : UTF-8 Codec ID : S_TEXT/UTF8 Codec ID/Info : UTF-8 Plain Text Duration : 1 h 45 min Bit rate : 29 b/s Count of elements : 1058 Stream size : 22.8 KiB (0%) Language : Japanese Default : No Forced : No Text #24 ID : 27 Format : UTF-8 Codec ID : S_TEXT/UTF8 Codec ID/Info : UTF-8 Plain Text Duration : 1 h 50 min Bit rate : 41 b/s Count of elements : 1060 Stream size : 33.7 KiB (0%) Language : Korean Default : No Forced : No Text #25 ID : 28 Format : UTF-8 Codec ID : S_TEXT/UTF8 Codec ID/Info : UTF-8 Plain Text Duration : 1 h 50 min Bit rate : 35 b/s Count of elements : 1059 Stream size : 28.7 KiB (0%) Language : Malay Default : No Forced : No Text #26 ID : 29 Format : UTF-8 Codec ID : S_TEXT/UTF8 Codec ID/Info : UTF-8 Plain Text Duration : 1 h 50 min Bit rate : 35 b/s Count of elements : 1057 Stream size : 28.4 KiB (0%) Language : Norwegian Bokmal Default : No Forced : No Text #27 ID : 30 Format : UTF-8 Codec ID : S_TEXT/UTF8 Codec ID/Info : UTF-8 Plain Text Duration : 1 h 50 min Bit rate : 31 b/s Count of elements : 961 Stream size : 25.5 KiB (0%) Language : Dutch Default : No Forced : No Text #28 ID : 31 Format : UTF-8 Codec ID : S_TEXT/UTF8 Codec ID/Info : UTF-8 Plain Text Duration : 1 h 50 min Bit rate : 34 b/s Count of elements : 1047 Stream size : 28.0 KiB (0%) Title : Brazilian Language : Portuguese Default : No Forced : No Text #29 ID : 32 Format : UTF-8 Codec ID : S_TEXT/UTF8 Codec ID/Info : UTF-8 Plain Text Duration : 1 h 50 min Bit rate : 34 b/s Count of elements : 1054 Stream size : 27.9 KiB (0%) Language : Portuguese Default : No Forced : No Text #30 ID : 33 Format : UTF-8 Codec ID : S_TEXT/UTF8 Codec ID/Info : UTF-8 Plain Text Duration : 1 h 50 min Bit rate : 38 b/s Count of elements : 921 Stream size : 30.9 KiB (0%) Language : Romanian Default : No Forced : No Text #31 ID : 34 Format : UTF-8 Codec ID : S_TEXT/UTF8 Codec ID/Info : UTF-8 Plain Text Duration : 1 h 50 min Bit rate : 35 b/s Count of elements : 930 Stream size : 28.8 KiB (0%) Language : Swedish Default : No Forced : No Text #32 ID : 35 Format : UTF-8 Codec ID : S_TEXT/UTF8 Codec ID/Info : UTF-8 Plain Text Duration : 1 h 50 min Bit rate : 93 b/s Count of elements : 1058 Stream size : 75.2 KiB (0%) Language : Thai Default : No Forced : No Text #33 ID : 36 Format : UTF-8 Codec ID : S_TEXT/UTF8 Codec ID/Info : UTF-8 Plain Text Duration : 1 h 50 min Bit rate : 37 b/s Count of elements : 1041 Stream size : 29.9 KiB (0%) Language : Turkish Default : No Forced : No Text #34 ID : 37 Format : UTF-8 Codec ID : S_TEXT/UTF8 Codec ID/Info : UTF-8 Plain Text Duration : 1 h 50 min Bit rate : 59 b/s Count of elements : 1050 Stream size : 48.0 KiB (0%) Language : Ukrainian Default : No Forced : No Text #35 ID : 38 Format : UTF-8 Codec ID : S_TEXT/UTF8 Codec ID/Info : UTF-8 Plain Text Duration : 1 h 50 min Bit rate : 46 b/s Count of elements : 1025 Stream size : 37.9 KiB (0%) Language : Vietnamese Default : No Forced : No Text #36 ID : 39 Format : UTF-8 Codec ID : S_TEXT/UTF8 Codec ID/Info : UTF-8 Plain Text Duration : 1 h 50 min Bit rate : 36 b/s Count of elements : 1067 Stream size : 29.2 KiB (0%) Title : Simplified Language : Chinese Default : No Forced : No Text #37 ID : 40 Format : UTF-8 Codec ID : S_TEXT/UTF8 Codec ID/Info : UTF-8 Plain Text Duration : 1 h 50 min Bit rate : 34 b/s Count of elements : 1067 Stream size : 27.9 KiB (0%) Title : Traditional Language : Chinese Default : No Forced : No

Всего файлов в раздаче: 1 
Colors.of.Evil.Red.2024.1080p.NF.WEB-DL.DUAL.DDP5.1.H.264.mkv4.86 GB

Похожие раздачи по запросу - Цвет
2024-05-31 magnet Цвет зла: красный / Кольори зла: Червоний / Kolory zla. Czerwien (2024) WEB-DL 1080p | D | Netflix | UKR 3.86 GB ↑ 0 ↓ 0
2023-12-11 magnet Подвиг разведчика (1947) WEB-DLRip-AVC от New-Team | цвет 1.09 GB ↑ 0 ↓ 0

Кто качает (только для создателя раздачи и модераторов): Локальные пиры отсутствуют

Комментарии


Зарегистрируйтесь чтобы добавить комментарий
Торрент клиент
byTorrent - программа для загрузки торрент-файлов.

Скачать byTorrent.exe (1,5 МБ)

Скачать byTorrent.zip (0,6 МБ)

Поддержи torrent.by
российских рублей
(300 российских рублей это 4$)

Обратная связь rss

End game ©