↑↓torrent.by
Поиск
Логин:  Регистрация
Пароль:

Таро: Карта смерти / Tarot (2024) WEB-DL 720p от селезень | P, A | HDRezka Studio, Есарев

download Скачать торрент-файл   magnet Магнитная ссылка Размер: 2.23 GB Добавлен: 2024-05-31 17:00
Пиры будут получены из сети DHT
Последний сидер был замечен 2024-06-07 00:17
Информация о фильме Название: Таро: Карта смерти Оригинальное название: Tarot Год выпуска: 2024 Жанр: Ужасы Режиссер: Спенсер Коэн / Spenser Cohen, Анна Халберг / Anna Halberg В ролях: Харриет Слейтер, Эдейн Брэдли, Джейкоб Баталон, Авантика, Умберли Гонсалес, Вольфганг Новограц, Ларсен Томпсон, Олуэн Фуэре, Сунчика Миланович, Алан Уэллс, Анна Халберг, Кевин Корнуолл, Джосс Картер, Джеймс Суонтон О фильме: Когда компания друзей безрассудно нарушает священное правило гадания на Таро — никогда не использовать чужую колоду — они неосознанно высвобождают зло, запертое в проклятых картах. Один за другим они оказываются лицом к лицу с судьбой и вступают в гонку со смертью, чтобы избежать будущего, предсказанного в их гаданиях. Выпущено: США, Сербия, Alloy Entertainment, Capstone Pictures, Ground Control, Screen Gems Продолжительность: 01:32:11 Перевод 1: Профессиональный (многоголосый, закадровый) | HDRezka Studio Перевод 2: Авторский (одноголосый, закадровый) | Дмитрий Есарев | 18+ Субтитры: Русские (Forced), Английские (Full, SDH) Файл Формат: Matroska Качество: WEB-DL 720p | AMZN Видео: 1248x520 at 23.976 fps, MPEG-4 AVC, ~1985 kbps Аудио 1: AC3, 2 ch, ~192 kbps - | Русский | | HDRezka Studio Аудио 2: AC3, 6 ch, ~640 kbps - | Русский | | Дмитрий Есарев Аудио 3: E-AC3, 6 ch, ~640 kbps - | Английский | | Original Формат субтитров: softsub (SRT)
[+] M/IGeneral Unique ID : 141603146464575013594852801415250182410 (0x6A87C624D5C34141B8A9F65CBF18010A) Complete name : S:Tarot.2024.P.A.AMZN.WEB-DL.720p.x264.seleZen.mkv Format : Matroska Format version : Version 4 File size : 2.23 GiB Duration : 1 h 32 min Overall bit rate : 3 460 kb/s Frame rate : 23.976 FPS Movie name : Tarot.2024.P.A.AMZN.WEB-DL.720p.x264.seleZen Encoded date : 2024-05-31 07:45:00 UTC Writing application : mkvmerge v84.0 ('Sleeper') 64-bit Writing library : libebml v1.4.5 + libmatroska v1.7.1 Cover : Yes Attachments : cover.jpg / small_cover.jpg Video ID : 1 Format : AVC Format/Info : Advanced Video Codec Format profile : High@L3.1 Format settings : CABAC / 4 Ref Frames Format settings, CABAC : Yes Format settings, Reference : 4 frames Codec ID : V_MPEG4/ISO/AVC Duration : 1 h 32 min Bit rate mode : Constant Bit rate : 1 985 kb/s Nominal bit rate : 4 000 kb/s Width : 1 248 pixels Height : 520 pixels Display aspect ratio : 2.40:1 Frame rate mode : Constant Frame rate : 23.976 (24000/1001) FPS Color space : YUV Chroma subsampling : 4:2:0 Bit depth : 8 bits Scan type : Progressive Bits/(Pixel*Frame) : 0.128 Stream size : 1.28 GiB (57%) Title : -=DoMiNo=- Language : English Default : Yes Forced : No Color range : Limited Color primaries : BT.709 Transfer characteristics : BT.709 Matrix coefficients : BT.709 Audio #1 ID : 2 Format : AC-3 Format/Info : Audio Coding 3 Commercial name : Dolby Digital Codec ID : A_AC3 Duration : 1 h 32 min Bit rate mode : Constant Bit rate : 192 kb/s Channel(s) : 2 channels Channel layout : L R Sampling rate : 48.0 kHz Frame rate : 31.250 FPS (1536 SPF) Compression mode : Lossy Stream size : 127 MiB (6%) Title : MVO -HDRezka Studio Language : Russian Service kind : Complete Main Default : Yes Forced : No Dialog Normalization : -31 dB dialnorm_Average : -31 dB dialnorm_Minimum : -31 dB dialnorm_Maximum : -31 dB Audio #2 ID : 3 Format : AC-3 Format/Info : Audio Coding 3 Commercial name : Dolby Digital Codec ID : A_AC3 Duration : 1 h 32 min Bit rate mode : Constant Bit rate : 640 kb/s Channel(s) : 6 channels Channel layout : L R C LFE Ls Rs Sampling rate : 48.0 kHz Frame rate : 31.250 FPS (1536 SPF) Compression mode : Lossy Delay relative to video : 27 ms Stream size : 422 MiB (18%) Title : AVO -Д. Есарев Language : Russian Service kind : Complete Main Default : No Forced : No Dialog Normalization : -31 dB cmixlev : -4.5 dB surmixlev : -6 dB dialnorm_Average : -31 dB dialnorm_Minimum : -31 dB dialnorm_Maximum : -31 dB Audio #3 ID : 4 Format : E-AC-3 Format/Info : Enhanced AC-3 Commercial name : Dolby Digital Plus Codec ID : A_EAC3 Duration : 1 h 32 min Bit rate mode : Constant Bit rate : 640 kb/s Channel(s) : 6 channels Channel layout : L R C LFE Ls Rs Sampling rate : 48.0 kHz Frame rate : 31.250 FPS (1536 SPF) Compression mode : Lossy Stream size : 422 MiB (18%) Language : English Service kind : Complete Main Default : No Forced : No Dialog Normalization : -31 dB compr : -0.28 dB dialnorm_Average : -31 dB dialnorm_Minimum : -31 dB dialnorm_Maximum : -31 dB Text #1 ID : 5 Format : UTF-8 Codec ID : S_TEXT/UTF8 Codec ID/Info : UTF-8 Plain Text Duration : 1 h 12 min Bit rate : 1 b/s Frame rate : 0.005 FPS Count of elements : 22 Stream size : 632 Bytes (0%) Title : Forced Language : Russian Default : No Forced : No Text #2 ID : 6 Format : UTF-8 Codec ID : S_TEXT/UTF8 Codec ID/Info : UTF-8 Plain Text Duration : 1 h 31 min Bit rate : 61 b/s Frame rate : 0.259 FPS Count of elements : 1421 Stream size : 41.2 KiB (0%) Title : Full Language : English Default : No Forced : No Text #3 ID : 7 Format : UTF-8 Codec ID : S_TEXT/UTF8 Codec ID/Info : UTF-8 Plain Text Duration : 1 h 31 min Bit rate : 64 b/s Frame rate : 0.259 FPS Count of elements : 1421 Stream size : 43.1 KiB (0%) Title : SDH Language : English Default : No Forced : No Menu 00:00:00.000 : en:Studio Logo 00:00:44.000 : en:Scene 2 00:00:53.000 : en:Scene 3 00:03:58.000 : en:Scene 4 00:04:04.000 : en:Scene 5 00:09:59.000 : en:Scene 6 00:16:58.000 : en:Title Sequence 00:17:04.000 : en:Scene 8 00:21:02.000 : en:Scene 9 00:22:02.000 : en:Scene 10 00:23:44.000 : en:Scene 11 00:30:02.000 : en:Scene 12 00:35:01.000 : en:Scene 13 00:40:34.000 : en:Scene 14 00:48:48.000 : en:Scene 15 00:53:32.000 : en:Scene 16 00:59:50.000 : en:Scene 17 00:59:58.000 : en:Scene 18 01:00:18.000 : en:Scene 19 01:07:53.000 : en:Scene 20 01:08:50.000 : en:Scene 21 01:09:52.000 : en:Scene 22 01:09:56.000 : en:Scene 23 01:16:19.000 : en:Scene 24 01:23:09.000 : en:Scene 25 01:25:30.000 : en:End Credits
Релиз: Присоединяйся к: Кликай на баннеры.

Всего файлов в раздаче: 1 
Tarot.2024.P.A.AMZN.WEB-DL.720p.x264.seleZen.mkv2.23 GB

Похожие раздачи по запросу - Таро
2024-06-04 magnet Таро: Карта смерти / Tarot (2024) WEB-DLRip от New-Team | D 1.46 GB ↑ 0 ↓ 0
2024-06-04 magnet Таро: Карта смерти / Tarot (2024) WEB-DL 720p от селезень | D, P, A 2.47 GB ↑ 0 ↓ 0
2024-06-04 magnet Таро: Карта смерти / Tarot (2024) WEB-DL 1080p от New-Team | D, P, A 4.86 GB ↑ 2 ↓ 2
2024-06-04 magnet Таро: Карта смерти / Tarot (2024) WEB-DLRip-AVC | D, P 1.73 GB ↑ 3 ↓ 0
2024-05-31 magnet Таро: Карта смерти / Tarot (2024) WEB-DLRip-AVC | P, A | HDRezka Studio, Есарев 1.78 GB ↑ 0 ↓ 0
2024-05-31 magnet Таро: Карта смерти / Tarot (2024) WEB-DL 1080p от New-Team | P, A | HDRezka Studio, Есарев 4.61 GB ↑ 0 ↓ 0
2024-05-29 magnet Таро: Карта смерти / Tarot (2024) WEB-DLRip от New-Team | A | Есарев 1.46 GB ↑ 0 ↓ 0

Комментарии


Зарегистрируйтесь чтобы добавить комментарий
Торрент клиент
byTorrent - программа для загрузки торрент-файлов.

Скачать byTorrent.exe (1,5 МБ)

Скачать byTorrent.zip (0,6 МБ)

Поддержи torrent.by
российских рублей
(300 российских рублей это 4$)

Обратная связь rss

End game ©