↑↓torrent.by
Поиск
Логин:  Регистрация
Пароль:

Из глубины / No Way Up (2024) BDRip-AVC от New-Team | D, P2

download Скачать торрент-файл   magnet Магнитная ссылка Размер: 2.14 GB Добавлен: 2024-06-01 05:00
Пиры будут получены из сети DHT
Последний сидер был замечен 2024-06-12 08:28
Из глубины / No Way Up Год выпуска: 2024 Выпущено: США, Altitude Film Entertainment, Hyprr Films, ngenious Film Partners, Sarma Films Жанр: боевик, триллер, драма, приключения Режиссер: Клаудио Фах / Claudio Fäh В ролях: Софи Макинтош, Келси Грэммер, Филлис Логан, Колм Мини, Уильям Аттенборо, Джеймс Кэрролл Джордан, Джеремия Амур, Грэйс Неттл, Мануэль Пасифик, Дэвид Самартин, Дэвид Дж Биско, Скотт Кокер, Ли Байфорд О фильме: Самолет терпит крушение в Тихом океане. Затонувший авиалайнер висит на краю пропасти, а выжившие оказываются в западне воздушного кармана. Запас воздуха постепенно заканчивается, и между пассажирами начинается борьба за выживание. Продолжительность: 01:30:33 Перевод: #1: Профессиональный (полное дублирование) | Vox Records #2: Профессиональный (двухголосый, закадровый) | ViruseProject | 18 + Субтитры: Русские, английские. Раздача от: Автор релиза: JNS82. Формат: MKV Качество: BDRip-AVC Видео: MPEG-4 AVC, 2170 Кбит/с, 1024x428 Аудио #1: AC3, 6 ch, 384 Кбит/с | RUS | DUB Аудио #2: AC3, 6 ch, 448 Кбит/с | RUS | DVO Аудио #3: AC3, 6 ch, 384 Кбит/с | ENG |
[+] MediaInfoОбщее Уникальный идентификатор : 295288990243837616324750997214798477129 (0xDE269742542E9CC59405F8CF8FEEF749) Полное имя : D:TorrentsNo.Way.Up.2024.BDRip-AVC_от New-Team_by_JNS82.mkv Формат : Matroska Версия формата : Version 4 Размер файла : 2,14 Гбайт Продолжительность : 1 ч. 30 м. Общий поток : 3 384 Кбит/сек Название фильма : No.Way.Up.2024.BDRip-AVC_от New-Team_by_JNS82 Дата кодирования : UTC 2024-05-31 16:31:28 Программа кодирования : mkvmerge v79.0 ('Funeral Pyres') 64-bit Библиотека кодирования : libebml v1.4.4 + libmatroska v1.7.1 Видео Идентификатор : 1 Формат : AVC Формат/Информация : Advanced Video Codec Профиль формата : High@L4.1 Настройки формата : CABAC / 11 Ref Frames Параметр CABAC формата : Да Параметр RefFrames формата : 11 кадров Идентификатор кодека : V_MPEG4/ISO/AVC Продолжительность : 1 ч. 30 м. Битрейт : 2 170 Кбит/сек Ширина : 1 024 пикселя Высота : 428 пикселей Соотношение сторон : 2,40:1 Режим частоты кадров : Постоянный Частота кадров : 24,000 кадра/сек Цветовое пространство : YUV Субдискретизация насыщенности : 4:2:0 Битовая глубина : 8 бит Тип развёртки : Прогрессивная Бит/(Пиксели*Кадры) : 0.206 Размер потока : 1,37 Гбайт (64%) Библиотека кодирования : x264 core 164 r3156+57M NewTeam t_mod_New Настройки программы : cabac=1 / ref=11 / deblock=1:-3:-2 / analyse=0x3:0x133 / me=umh / subme=10 / psy=1 / fade_compensate=0.00 / psy_rd=1.03:0.07 / mixed_ref=1 / me_range=32 / chroma_me=1 / trellis=2 / 8x8dct=1 / cqm=0 / deadzone=21,11 / fast_pskip=0 / chroma_qp_offset=-3 / threads=13 / lookahead_threads=2 / sliced_threads=0 / nr=0 / decimate=0 / interlaced=0 / bluray_compat=0 / constrained_intra=0 / fgo=0 / bframes=9 / b_pyramid=2 / b_adapt=2 / b_bias=0 / direct=3 / weightb=1 / open_gop=0 / weightp=2 / keyint=240 / keyint_min=23 / scenecut=40 / intra_refresh=0 / rc_lookahead=60 / rc=2pass / mbtree=0 / bitrate=2170 / ratetol=1.0 / qcomp=0.60 / qpmin=0:0:0 / qpmax=69:69:69 / qpstep=5 / cplxblur=20.0 / qblur=0.5 / vbv_maxrate=50000 / vbv_bufsize=62500 / nal_hrd=none / filler=0 / ip_ratio=1.40 / pb_ratio=1.30 / aq=1:1.00 / aq-sensitivity=10.00 / aq-factor=1.00:1.00:1.00 / aq2=0 / aq3=0 Язык : English Default : Да Forced : Нет Аудио #1 Идентификатор : 2 Формат : AC-3 Формат/Информация : Audio Coding 3 Коммерческое название : Dolby Digital Идентификатор кодека : A_AC3 Продолжительность : 1 ч. 30 м. Вид битрейта : Постоянный Битрейт : 384 Кбит/сек Каналы : 6 каналов Channel layout : L R C LFE Ls Rs Частота : 48,0 КГц Частота кадров : 31,250 кадров/сек (1536 SPF) Метод сжатия : С потерями Размер потока : 249 Мбайт (11%) Заголовок : DUB - Vox Records Язык : Russian Service kind : Complete Main Default : Да Forced : Нет Аудио #2 Идентификатор : 3 Формат : AC-3 Формат/Информация : Audio Coding 3 Коммерческое название : Dolby Digital Идентификатор кодека : A_AC3 Продолжительность : 1 ч. 30 м. Вид битрейта : Постоянный Битрейт : 448 Кбит/сек Каналы : 6 каналов Channel layout : L R C LFE Ls Rs Частота : 48,0 КГц Частота кадров : 31,250 кадров/сек (1536 SPF) Метод сжатия : С потерями Размер потока : 290 Мбайт (13%) Заголовок : DVO - ViruseProject | 18 + Язык : Russian Service kind : Complete Main Default : Нет Forced : Нет Аудио #3 Идентификатор : 4 Формат : AC-3 Формат/Информация : Audio Coding 3 Коммерческое название : Dolby Digital Идентификатор кодека : A_AC3 Продолжительность : 1 ч. 30 м. Вид битрейта : Постоянный Битрейт : 384 Кбит/сек Каналы : 6 каналов Channel layout : L R C LFE Ls Rs Частота : 48,0 КГц Частота кадров : 31,250 кадров/сек (1536 SPF) Метод сжатия : С потерями Размер потока : 249 Мбайт (11%) Заголовок : Original Язык : English Service kind : Complete Main Default : Нет Forced : Нет Текст #1 Идентификатор : 5 Формат : UTF-8 Идентификатор кодека : S_TEXT/UTF8 Идентификатор кодека/Информация : UTF-8 Plain Text Продолжительность : 1 ч. 27 м. Битрейт : 53 бит/сек Count of elements : 958 Размер потока : 34,2 Кбайт (0%) Заголовок : Язык : Russian Default : Нет Forced : Нет Текст #2 Идентификатор : 6 Формат : UTF-8 Идентификатор кодека : S_TEXT/UTF8 Идентификатор кодека/Информация : UTF-8 Plain Text Продолжительность : 1 ч. 29 м. Битрейт : 52 бит/сек Count of elements : 1581 Размер потока : 34,8 Кбайт (0%) Заголовок : Язык : English Default : Нет Forced : Нет Меню 00:00:00.000 : en:Глава 01 00:15:34.916 : en:Глава 02 00:29:36.750 : en:Глава 03 00:45:31.416 : en:Глава 04 00:59:00.750 : en:Глава 05 01:14:22.416 : en:Глава 06

Всего файлов в раздаче: 1 
No.Way.Up.2024.BDRip-AVC_от New-Team_by_JNS82.mkv2.14 GB

Похожие раздачи по запросу - глубины
2024-06-01 magnet Из глубины / No Way Up (2024) BDRip 720p от DoMiNo & селезень | D 3.94 GB ↑ 0 ↓ 1
2024-06-01 magnet Из глубины / No Way Up (2024) BDRip-AVC от DoMiNo & селезень | D 1.46 GB ↑ 0 ↓ 1
2024-06-01 magnet Из глубины / No Way Up (2024) BDRemux 1080p | D, P2 23.93 GB ↑ 0 ↓ 1
2024-05-31 magnet Из глубины / No Way Up (2024) BDRip 720p от MegaPeer | D, P2 3.82 GB ↑ 0 ↓ 0
2024-05-31 magnet Из глубины / No Way Up (2024) BDRip 1080p от MegaPeer | D, P2 8.79 GB ↑ 0 ↓ 2
2024-05-31 magnet Из глубины / No Way Up (2024) BDRip от MegaPeer | D 1.46 GB ↑ 0 ↓ 2

Кто качает (только для создателя раздачи и модераторов): Локальные пиры отсутствуют

Комментарии


Зарегистрируйтесь чтобы добавить комментарий
Торрент клиент
byTorrent - программа для загрузки торрент-файлов.

Скачать byTorrent.exe (1,5 МБ)

Скачать byTorrent.zip (0,6 МБ)

Поддержи torrent.by
российских рублей
(300 российских рублей это 4$)

Обратная связь rss

End game ©