↑↓torrent.by
Поиск
Логин:  Регистрация
Пароль:

Цвета зла: Красный / Kolory zla. Czerwien / Colors of Evil: Red (2024) WEB-DL 1080p от JNS82 | L2 | Zetflix

download Скачать торрент-файл   magnet Магнитная ссылка Размер: 5.21 GB Раздают: 0 Качают: 1 Добавлен: 2024-06-01 05:00
Пиры будут получены из сети DHT
Последний сидер был замечен сегодня в 21:48
Цвета зла: Красный / Kolory zla. Czerwien / Colors of Evil: Red Год выпуска: 2024 Выпущено: Польша / Aurum Film Жанр: триллер, драма, криминал, детектив Режиссер: Адриан Панек / Adrian Panek В ролях: Майя Осташевска, Якуб Гершал, Зофия Ястржебска, Анджей Конопка, Пшемыслав Блущ, Ян Витеска О фильме: Когда на берегу пляжа в Польше находят тело девушки, прокурор объединяет силы с матерью жертвы в поисках правды. Продолжительность: 01:52:02 Перевод: Любительский (двухголосый, закадровый) | Zetflix | Дорожка собрана с выделенных голосов Субтитры: Русские, английские Автор релиза: JNS82. Формат: MKV Качество: WEB-DL 1080p | NF Видео: MPEG-4 AVC, 5000 Кбит/с, 1920x1080 Аудио #1: AC3, 6 ch, 448 Кбит/с | RUS | Аудио #2: E-AC3, 6 ch, 640 Кбит/с | POL | Аудио #2: E-AC3, 6 ch, 640 Кбит/с | ENG |
[+] MediaInfoОбщее Уникальный идентификатор : 310705385920106983959201483439236055384 (0xE9BFAE3FE756F48AC1D8546369C60158) Полное имя : D:TorrentsColors.of.Evil.Red.2024.1080p.NF_от_JNS82.mkv Формат : Matroska Версия формата : Version 4 Размер файла : 5,21 Гбайт Продолжительность : 1 ч. 52 м. Режим общего битрейта : Переменный Общий поток : 6 651 Кбит/сек Название фильма : Colors.of.Evil.Red.2024.1080p.NF_от_JNS82 Дата кодирования : UTC 2024-05-31 13:09:14 Программа кодирования : mkvmerge v79.0 ('Funeral Pyres') 64-bit Библиотека кодирования : libebml v1.4.4 + libmatroska v1.7.1 Видео Идентификатор : 1 Формат : AVC Формат/Информация : Advanced Video Codec Профиль формата : Main@L4 Настройки формата : CABAC / 3 Ref Frames Параметр CABAC формата : Да Параметр RefFrames формата : 3 кадра Идентификатор кодека : V_MPEG4/ISO/AVC Продолжительность : 1 ч. 52 м. Вид битрейта : Переменный Битрейт : 5 000 Кбит/сек Максимальный битрейт : 7 500 Кбит/сек Ширина : 1 920 пикселей Высота : 1 080 пикселей Соотношение сторон : 16:9 Режим частоты кадров : Постоянный Частота кадров : 24,000 кадра/сек Цветовое пространство : YUV Субдискретизация насыщенности : 4:2:0 Битовая глубина : 8 бит Тип развёртки : Прогрессивная Бит/(Пиксели*Кадры) : 0.100 Размер потока : 3,85 Гбайт (74%) Библиотека кодирования : x264 core 148 r2727 7d026e8 Настройки программы : cabac=1 / ref=3 / deblock=1:0:0 / analyse=0x1:0x111 / me=umh / subme=10 / psy=1 / psy_rd=1.00:0.00 / mixed_ref=1 / me_range=24 / chroma_me=1 / trellis=2 / 8x8dct=0 / cqm=0 / deadzone=21,11 / fast_pskip=1 / chroma_qp_offset=-2 / threads=6 / lookahead_threads=1 / sliced_threads=0 / nr=0 / decimate=1 / interlaced=0 / bluray_compat=0 / stitchable=1 / constrained_intra=0 / bframes=2 / b_pyramid=0 / b_adapt=2 / b_bias=0 / direct=3 / weightb=1 / open_gop=0 / weightp=2 / keyint=240 / keyint_min=121 / scenecut=0 / intra_refresh=0 / rc_lookahead=48 / rc=2pass / mbtree=1 / bitrate=5000 / ratetol=1.0 / qcomp=0.50 / qpmin=6 / qpmax=51 / qpstep=4 / cplxblur=20.0 / qblur=0.5 / vbv_maxrate=7500 / vbv_bufsize=10000 / nal_hrd=vbr / filler=0 / ip_ratio=1.40 / aq=1:1.00 Default : Да Forced : Нет Аудио #1 Идентификатор : 2 Формат : AC-3 Формат/Информация : Audio Coding 3 Коммерческое название : Dolby Digital Идентификатор кодека : A_AC3 Продолжительность : 1 ч. 52 м. Вид битрейта : Постоянный Битрейт : 448 Кбит/сек Каналы : 6 каналов Channel layout : L R C LFE Ls Rs Частота : 48,0 КГц Частота кадров : 31,250 кадров/сек (1536 SPF) Метод сжатия : С потерями Размер потока : 359 Мбайт (7%) Заголовок : DVO - Zetflix Язык : Russian Service kind : Complete Main Default : Да Forced : Нет Аудио #2 Идентификатор : 3 Формат : E-AC-3 Формат/Информация : Enhanced AC-3 Коммерческое название : Dolby Digital Plus Идентификатор кодека : A_EAC3 Продолжительность : 1 ч. 52 м. Вид битрейта : Постоянный Битрейт : 640 Кбит/сек Каналы : 6 каналов Channel layout : L R C LFE Ls Rs Частота : 48,0 КГц Частота кадров : 31,250 кадров/сек (1536 SPF) Метод сжатия : С потерями Размер потока : 513 Мбайт (10%) Заголовок : Original Язык : Polish Service kind : Complete Main Default : Нет Forced : Нет Аудио #3 Идентификатор : 4 Формат : E-AC-3 Формат/Информация : Enhanced AC-3 Коммерческое название : Dolby Digital Plus Идентификатор кодека : A_EAC3 Продолжительность : 1 ч. 52 м. Вид битрейта : Постоянный Битрейт : 640 Кбит/сек Каналы : 6 каналов Channel layout : L R C LFE Ls Rs Частота : 48,0 КГц Частота кадров : 31,250 кадров/сек (1536 SPF) Метод сжатия : С потерями Размер потока : 513 Мбайт (10%) Заголовок : eng Язык : English Service kind : Complete Main Default : Нет Forced : Нет Текст #1 Идентификатор : 5 Формат : UTF-8 Идентификатор кодека : S_TEXT/UTF8 Идентификатор кодека/Информация : UTF-8 Plain Text Продолжительность : 1 ч. 50 м. Битрейт : 59 бит/сек Count of elements : 1048 Размер потока : 48,2 Кбайт (0%) Заголовок : Язык : Russian Default : Нет Forced : Нет Текст #2 Идентификатор : 6 Формат : UTF-8 Идентификатор кодека : S_TEXT/UTF8 Идентификатор кодека/Информация : UTF-8 Plain Text Продолжительность : 1 ч. 50 м. Битрейт : 53 бит/сек Count of elements : 1388 Размер потока : 43,1 Кбайт (0%) Заголовок : Язык : English Default : Нет Forced : Нет

Всего файлов в раздаче: 1 
Colors.of.Evil.Red.2024.1080p.NF_от_JNS82.mkv5.21 GB

Похожие раздачи по запросу - Цвета
Сегодня magnet Дитя погоды / Tenki no ko / Weathering With You (2019) BDRip 1080p 444 другие цвета 9.11 GB ↑ 0 ↓ 0
2024-06-10 magnet Роман Путилов - Оболочка цвета маренго 01, Постовой (2024) МР3 541.61 MB ↑ 0 ↓ 0
2024-06-01 magnet Цвета зла: Красный / Kolory zla. Czerwien / Colors of Evil: Red (2024) WEB-DLRip-AVC | L2 | Zetflix 2.19 GB ↑ 1 ↓ 1
2024-05-09 magnet Роман Путилов - Цикл «Оболочка цвета маренго» [9 книг] (2022-2024) FB2 7.85 MB ↑ 0 ↓ 0

Комментарии


Зарегистрируйтесь чтобы добавить комментарий
Торрент клиент
byTorrent - программа для загрузки торрент-файлов.

Скачать byTorrent.exe (1,5 МБ)

Скачать byTorrent.zip (0,6 МБ)

Поддержи torrent.by
российских рублей
(300 российских рублей это 4$)

Обратная связь rss

End game ©