↑↓torrent.by
Поиск
Логин:  Регистрация
Пароль:

Большой Каньон / Amazing Nature: Grand Canyon [01 из 02] (2022) HDTVRip 1080p | P1

download Скачать торрент-файл   magnet Магнитная ссылка Размер: 3.45 GB Добавлен: 2024-06-01 11:00
Пиры будут получены из сети DHT
Последний сидер был замечен 2024-06-01 11:00
Информация о фильме Название: Большой Каньон Оригинальное название: Amazing Nature: Grand Canyon Год выхода: 2022 Жанр: Документальный, путешествия, видовой Режиссер: Роман Хомляк О фильме: Отправьтесь в путешествие по одному из самых знаковых ландшафтов Америки, пройдите по песчаным тропам и насладитесь видами с вершины национального парка Гранд-Каньон. Страна: США Продолжительность: 00:50:59 Перевод: Профессиональный (одноголосый закадровый) Файл Кодек: AVC/H.264 Качество: HDTVRip 1080p Видео: 1920x1080 (16:9), AVC (H.264), High@L4.1, 9500 kbps, 25 fps, 0.183 bit/pixel Звук: Русский 48 kHz, AC3 Dolby Digital, 2/0 (L,R) ch, 192 kbps Семпл
[+] MediaInfoComplete name : F:НаладкиНовая папкаБольшой каньон_Ep01_1080p.mkv Format : Matroska Format version : Version 4 File size : 3.45 GiB Duration : 50 min 59 s Overall bit rate : 9 681 kb/s Frame rate : 25.000 FPS Encoded date : 2024-05-26 04:05:33 UTC Writing application : mkvmerge v6.6.0 ('The Edge Of The In Between') built on Dec 1 2013 17:55:00 Writing library : libebml v1.3.0 + libmatroska v1.4.1 Video ID : 1 Format : AVC Format/Info : Advanced Video Codec Format profile : High@L4.1 Format settings : CABAC / 4 Ref Frames Format settings, CABAC : Yes Format settings, Reference : 4 frames Codec ID : V_MPEG4/ISO/AVC Duration : 50 min 59 s Bit rate : 9 500 kb/s Width : 1 920 pixels Height : 1 080 pixels Display aspect ratio : 16:9 Frame rate mode : Constant Frame rate : 25.000 FPS Color space : YUV Chroma subsampling : 4:2:0 Bit depth : 8 bits Scan type : Progressive Bits/(Pixel*Frame) : 0.183 Stream size : 3.31 GiB (96%) Writing library : x264 core 164 r3107 a8b68eb Encoding settings : cabac=1 / ref=4 / deblock=1:-1:-1 / analyse=0x3:0x113 / me=umh / subme=10 / psy=1 / psy_rd=1.00:0.15 / mixed_ref=1 / me_range=32 / chroma_me=1 / trellis=2 / 8x8dct=1 / cqm=0 / deadzone=21,11 / fast_pskip=1 / chroma_qp_offset=-3 / threads=16 / lookahead_threads=2 / sliced_threads=0 / nr=0 / decimate=1 / interlaced=0 / bluray_compat=0 / constrained_intra=0 / bframes=10 / b_pyramid=2 / b_adapt=2 / b_bias=0 / direct=1 / weightb=1 / open_gop=0 / weightp=2 / keyint=250 / keyint_min=25 / scenecut=40 / intra_refresh=0 / rc_lookahead=60 / rc=2pass / mbtree=1 / bitrate=9500 / ratetol=1.0 / qcomp=0.60 / qpmin=0 / qpmax=69 / qpstep=4 / cplxblur=20.0 / qblur=0.5 / vbv_maxrate=14000 / vbv_bufsize=14000 / nal_hrd=none / filler=0 / ip_ratio=1.40 / aq=1:1.00 Default : Yes Forced : No Audio ID : 2 Format : AC-3 Format/Info : Audio Coding 3 Commercial name : Dolby Digital Codec ID : A_AC3 Duration : 50 min 59 s Bit rate mode : Constant Bit rate : 192 kb/s Channel(s) : 2 channels Channel layout : L R Sampling rate : 48.0 kHz Frame rate : 31.250 FPS (1536 SPF) Compression mode : Lossy Stream size : 70.0 MiB (2%) Language : Russian Service kind : Complete Main Default : Yes Forced : No
[+] Скриншоты
Релиз от: kyba

Всего файлов в раздаче: 1 
Большой каньон_Ep01_1080p.mkv3.45 GB

Похожие раздачи по запросу - Большой
2024-06-11 magnet Истории большой страны [01x01-17] (2022-2024) WEBRip-AVC от Generalfilm | КПК 3.67 GB ↑ 0 ↓ 0
2024-06-06 magnet Серия - «Большой роман» [187 книг] (2015-2024) FB2 536.77 MB ↑ 0 ↓ 0
2024-06-03 magnet Истории большой страны [01-17] (2022) WEBRip 720p от Files-x 11.53 GB ↑ 0 ↓ 0
2024-06-02 magnet Истории большой страны [01x01-16] (2022) WEBRip 1080p 28.36 GB ↑ 0 ↓ 0
2024-04-25 magnet Большой. Плохой. Волк / Big/Bad/Wolf (2023) WEB-DL 1080p | ViruseProject 4.08 GB ↑ 0 ↓ 0
2024-04-11 magnet Артист с большой дороги [S01] (2023) WEB-DLRip-AVC от Generalfilm | КПК 1.70 GB ↑ 0 ↓ 0
2024-04-09 magnet Артист с большой дороги [01-08 из 08] (2023) WEB-DLRip-AVC от Files-x 4.82 GB ↑ 0 ↓ 0

Комментарии


Зарегистрируйтесь чтобы добавить комментарий
Торрент клиент
byTorrent - программа для загрузки торрент-файлов.

Скачать byTorrent.exe (1,5 МБ)

Скачать byTorrent.zip (0,6 МБ)

Поддержи torrent.by
российских рублей
(300 российских рублей это 4$)

Обратная связь rss

End game ©