↑↓torrent.by
Поиск
Логин:  Регистрация
Пароль:

Это про любовь? / A Question of Love? (2023) HDTVRip 720p | Р1

download Скачать торрент-файл   magnet Магнитная ссылка Размер: 1.50 GB Добавлен: 2024-06-01 11:00
Пиры будут получены из сети DHT
Последний сидер был замечен 2024-06-01 21:31
Информация о фильме Название: Это про любовь? Оригинальное название: A Question of Love? Год выхода: 2023 Жанр: Документальный, природа, флора, фауна Режиссер: Хуан Антонио Родригес Льяно О фильме: Создатели фильма исследуют поведение самцов в брачный период и отношение самок к своему потомству, пытаясь ответить на главный вопрос: способны ли животные чувствовать любовь? Страна: Испания Студия: Terra Incognita Продолжительность: 00:49:45 Перевод: Профессиональный (одноголосый закадровый) Файл Кодек: AVC/H.264 Качество: HDTVRip 720p Видео: 1280x720 (16:9), 25 fps, AVC (H.264), High@L4,1, 4000 kbps avg, 0.174 bit/pixel Звук: Русский 48 kHz, AC3 Dolby Digital, 2/0 (L,R) ch, 160 kbps Английский 48 kHz, AC3 Dolby Digital, 2/0 (L,R) ch, 160 kbps Семпл
[+] MediaInfoComplete name : F:НаладкиНовая папкаA Question of Love_720p.mkv Format : Matroska Format version : Version 4 File size : 1.50 GiB Duration : 49 min 45 s Overall bit rate : 4 321 kb/s Frame rate : 25.000 FPS Encoded date : 2024-06-01 03:43:36 UTC Writing application : mkvmerge v6.6.0 ('The Edge Of The In Between') built on Dec 1 2013 17:55:00 Writing library : libebml v1.3.0 + libmatroska v1.4.1 Video ID : 1 Format : AVC Format/Info : Advanced Video Codec Format profile : High@L4.1 Format settings : CABAC / 9 Ref Frames Format settings, CABAC : Yes Format settings, Reference : 9 frames Codec ID : V_MPEG4/ISO/AVC Duration : 49 min 45 s Bit rate : 4 000 kb/s Width : 1 280 pixels Height : 720 pixels Display aspect ratio : 16:9 Frame rate mode : Constant Frame rate : 25.000 FPS Color space : YUV Chroma subsampling : 4:2:0 Bit depth : 8 bits Scan type : Progressive Bits/(Pixel*Frame) : 0.174 Stream size : 1.36 GiB (91%) Writing library : x264 core 164 r3107 a8b68eb Encoding settings : cabac=1 / ref=9 / deblock=1:-1:-1 / analyse=0x3:0x113 / me=umh / subme=10 / psy=1 / psy_rd=1.00:0.15 / mixed_ref=1 / me_range=32 / chroma_me=1 / trellis=2 / 8x8dct=1 / cqm=0 / deadzone=21,11 / fast_pskip=1 / chroma_qp_offset=-3 / threads=16 / lookahead_threads=2 / sliced_threads=0 / nr=0 / decimate=1 / interlaced=0 / bluray_compat=0 / constrained_intra=0 / bframes=10 / b_pyramid=2 / b_adapt=2 / b_bias=0 / direct=1 / weightb=1 / open_gop=0 / weightp=2 / keyint=250 / keyint_min=25 / scenecut=40 / intra_refresh=0 / rc_lookahead=60 / rc=2pass / mbtree=1 / bitrate=4000 / ratetol=1.0 / qcomp=0.60 / qpmin=0 / qpmax=69 / qpstep=4 / cplxblur=20.0 / qblur=0.5 / vbv_maxrate=14000 / vbv_bufsize=14000 / nal_hrd=none / filler=0 / ip_ratio=1.40 / aq=1:1.00 Default : Yes Forced : No Audio #1 ID : 2 Format : AC-3 Format/Info : Audio Coding 3 Commercial name : Dolby Digital Codec ID : A_AC3 Duration : 49 min 45 s Bit rate mode : Constant Bit rate : 160 kb/s Channel(s) : 2 channels Channel layout : L R Sampling rate : 48.0 kHz Frame rate : 31.250 FPS (1536 SPF) Compression mode : Lossy Stream size : 57.0 MiB (4%) Language : Russian Service kind : Complete Main Default : Yes Forced : Yes Audio #2 ID : 3 Format : AC-3 Format/Info : Audio Coding 3 Commercial name : Dolby Digital Codec ID : A_AC3 Duration : 49 min 45 s Bit rate mode : Constant Bit rate : 160 kb/s Channel(s) : 2 channels Channel layout : L R Sampling rate : 48.0 kHz Frame rate : 31.250 FPS (1536 SPF) Compression mode : Lossy Stream size : 57.0 MiB (4%) Language : English Service kind : Complete Main Default : No Forced : No
[+] Скриншоты
Релиз от: kyba

Всего файлов в раздаче: 1 
A Question of Love_720p.mkv1.50 GB

Похожие раздачи по запросу - Это
2024-06-06 magnet Я псих, но это нормально / Saikojiman Gwaenchanha / It's Okay to Not Be Okay [S01] (2020) WEB-DL 720p | P | TVShows 28.29 GB ↑ 0 ↓ 1
2024-06-04 magnet Я псих, но это нормально / Saikojiman Gwaenchanha / It's Okay to Not Be Okay (2020) WEB-DL 1080p | P | TVShows 52.11 GB ↑ 0 ↓ 0
2024-06-02 magnet Серия - «Это личное!» [8 книг] (2020-2024) FB2 16.41 MB ↑ 1 ↓ 0
2024-05-24 magnet Теодор Драйзер - Это безумие (2024) MP3 342.79 MB ↑ 0 ↓ 0
2024-05-20 magnet Это случилось здесь 3: Скоро грянет буря / It Happened Here 3: A Storm is Brewing CE (2024) PC 922.05 MB ↑ 0 ↓ 0
2024-04-17 magnet Эротика в джунглях / Это случилось в Африке / Эротические джунгли / Jungle Erotic / A Happening in Africa (1970) DVDRip | A 745.42 MB ↑ 2 ↓ 0
2024-04-15 magnet Сантьяго Постегильо - Рим - это я. Правдивая история Юлия Цезаря (2024) FB2 6.50 MB ↑ 0 ↓ 0

Комментарии


Зарегистрируйтесь чтобы добавить комментарий
Торрент клиент
byTorrent - программа для загрузки торрент-файлов.

Скачать byTorrent.exe (1,5 МБ)

Скачать byTorrent.zip (0,6 МБ)

Поддержи torrent.by
российских рублей
(300 российских рублей это 4$)

Обратная связь rss

End game ©