↑↓torrent.by
Поиск
Логин:  Регистрация
Пароль:

Дыши! / Останній подих / Breathe (2024) WEB-DL 1080p | D | TS | UKR

download Скачать торрент-файл   magnet Магнитная ссылка Размер: 5.16 GB Добавлен: 2024-06-01 11:00
Пиры будут получены из сети DHT
Последний сидер был замечен 2024-06-01 21:04
Информация о фильме Название: Дыши! Оригинальное название: Breathe Год выхода: 2024 Жанр: боевик, триллер Режиссер: Стефон Бристоль В ролях: Дженнифер Хадсон, Милла Йовович, Куавенжане Уоллис, Сэм Уортингтон, Коммон, Рауль Кастильо, Дэн Мартин, Калисва Брюстер, Джеймс Саито, Соня Гиддингс О фильме: В мире, оставшемся без воздуха, для человека не нашлось места. Выжить удалось немногим — лишь тем, кто нашел спасение в специальных бункерах, жизнь в которых поддерживается с помощью генераторов, вырабатывающих кислород. Но столь ценная находка является всеобщим объектом охоты. Именно в этом безумном, жестоком и обреченном мире предстоит сражаться за жизнь обычной женщине, которая пойдет на все, чтобы подарить своей дочке хотя бы еще несколько бесценных глотков воздуха. Страна: США Студия: Capstone Studios, Thunder Road Продолжительность: 01:33:34 Перевод: Дублированный | TS (Украинский) Файл Кодек: x.264 Качество: WEB-DL 1080p Видео: AVC, 1920x800 (2.40:1), 23.976 fps, 7063 kb/s Аудио 1: AC3, 48.0 kHz, 2 ch, 192 kb/s | UKR Аудио 2: E-AC3, 48.0 kHz, 6 ch, 640 kb/s | ENG Субтитры: английские Сэмпл | Трейлер
[+] MIGeneral Unique ID : 172900448993600685926690281145024858035 (0x82136A4B4CA421FC88B43860BA3347B3) Complete name : Breathe (2024) AMZN WEB-DL 1080p Ukr(TS) Eng.mkv Format : Matroska Format version : Version 4 File size : 5.16 GiB Duration : 1 h 33 min Overall bit rate : 7 899 kb/s Encoded date : UTC 2024-05-31 17:29:38 Writing application : mkvmerge v8.3.0 ('Over the Horizon') 64bit Writing library : libebml v1.3.1 + libmatroska v1.4.2 Cover : Yes Attachments : Cover.jpg Video ID : 1 Format : AVC Format/Info : Advanced Video Codec Format profile : High@L4 Format settings : CABAC / 4 Ref Frames Format settings, CABAC : Yes Format settings, Reference frames : 4 frames Codec ID : V_MPEG4/ISO/AVC Duration : 1 h 33 min Bit rate mode : Constant Bit rate : 7 063 kb/s Nominal bit rate : 10 000 kb/s Width : 1 920 pixels Height : 800 pixels Display aspect ratio : 2.40:1 Frame rate mode : Constant Frame rate : 23.976 (24000/1001) FPS Color space : YUV Chroma subsampling : 4:2:0 Bit depth : 8 bits Scan type : Progressive Bits/(Pixel*Frame) : 0.192 Stream size : 4.62 GiB (89%) Default : Yes Forced : No Color range : Limited Color primaries : BT.709 Transfer characteristics : BT.709 Matrix coefficients : BT.709 Audio #1 ID : 2 Format : AC-3 Format/Info : Audio Coding 3 Commercial name : Dolby Digital Codec ID : A_AC3 Duration : 1 h 33 min Bit rate mode : Constant Bit rate : 192 kb/s Channel(s) : 2 channels Channel layout : L R Sampling rate : 48.0 kHz Frame rate : 31.250 FPS (1536 SPF) Compression mode : Lossy Stream size : 129 MiB (2%) Title : DUB (TS) Language : Ukrainian Service kind : Complete Main Default : Yes Forced : No Audio #2 ID : 3 Format : E-AC-3 Format/Info : Enhanced AC-3 Commercial name : Dolby Digital Plus Codec ID : A_EAC3 Duration : 1 h 33 min Bit rate mode : Constant Bit rate : 640 kb/s Channel(s) : 6 channels Channel layout : L R C LFE Ls Rs Sampling rate : 48.0 kHz Frame rate : 31.250 FPS (1536 SPF) Compression mode : Lossy Stream size : 428 MiB (8%) Title : Original Language : English Service kind : Complete Main Default : No Forced : No Text ID : 4 Format : UTF-8 Codec ID : S_TEXT/UTF8 Codec ID/Info : UTF-8 Plain Text Duration : 1 h 26 min Bit rate : 58 b/s Count of elements : 1314 Stream size : 37.2 KiB (0%) Language : English Default : No Forced : No
[+] Скриншоты

Всего файлов в раздаче: 1 
Breathe (2024) AMZN WEB-DL 1080p Ukr(TS) Eng.mkv5.16 GB

Комментарии


Зарегистрируйтесь чтобы добавить комментарий
Торрент клиент
byTorrent - программа для загрузки торрент-файлов.

Скачать byTorrent.exe (1,5 МБ)

Скачать byTorrent.zip (0,6 МБ)

Поддержи torrent.by
российских рублей
(300 российских рублей это 4$)

Обратная связь rss

End game ©