↑↓torrent.by
Поиск
Логин:  Регистрация
Пароль:

Coldrain - Final Destination and Vengeance - Xv Re Recorded [24Bit, Hi-Res] (2024) FLAC

download Скачать торрент-файл   magnet Магнитная ссылка Размер: 639.62 MB Добавлен: 2024-06-01 11:00
Пиры будут получены из сети DHT
Последний сидер был замечен 2024-06-01 12:20
Coldrain - Final Destination & Vengeance (Xv Re Recorded) (2024) Жанр: Alternative Rock, Post-Hardcore, Modern Rock Издание: WM Japan Источник: ссылка Продолжительность: 00:46:54 Кодек: FLAC 24/48 Битрейт: Lossless|WEB-DL Тип рипа: tracks Треклист: 01. Final Destination (Xv Re:Recorded) 02. Counterfeits & Lies (Xv Re:Recorded) 03. Someday (Xv Re:Recorded) 04. Fiction (Xv Re:Recorded) 05. Just Tonight (Xv Re:Recorded) 06. 24-7 (Xv Re:Recorded) 07. Doors (Xv Re:Recorded) 08. Deja Vu (Xv Re:Recorded) 09. Survive (Xv Re:Recorded) 10. My Addiction (Xv Re:Recorded) 11. Painting (Xv Re:Recorded) 12. 8am (Xv Re:Recorded) 13. Vengeance
[+] Дополнительная информация: https://youtu.be/PzaW0E7uRwc https://www.facebook.com/coldrainofficial/
[+] Отчёт Замер динамического диапазона: foobar2000 2.0 / Замер динамического диапазона (DR) 1.1.1 Дата отчёта: 2024-05-30 13:06:57 -------------------------------------------------------------------------------- Анализ: coldrain / Final Destination & Vengeance (Xv Re Recorded) -------------------------------------------------------------------------------- DR Пики RMS Продолжительность трека -------------------------------------------------------------------------------- DR5 0.00 дБ -5.68 дБ 3:23 01-FINAL DESTINATION (XV RE:RECORDED) DR5 0.00 дБ -5.29 дБ 3:33 02-COUNTERFEITS & LIES (XV RE:RECORDED) DR4 0.00 дБ -5.28 дБ 3:58 03-SOMEDAY (XV RE:RECORDED) DR4 0.00 дБ -5.43 дБ 3:25 04-FICTION (XV RE:RECORDED) DR4 0.00 дБ -5.50 дБ 3:18 05-JUST TONIGHT (XV RE:RECORDED) DR4 0.00 дБ -5.42 дБ 3:04 06-24-7 (XV RE:RECORDED) DR4 0.00 дБ -5.72 дБ 3:19 07-DOORS (XV RE:RECORDED) DR4 0.00 дБ -6.59 дБ 4:18 08-DEJA VU (XV RE:RECORDED) DR4 0.00 дБ -5.73 дБ 3:30 09-SURVIVE (XV RE:RECORDED) DR4 0.00 дБ -5.62 дБ 4:17 10-MY ADDICTION (XV RE:RECORDED) DR4 0.00 дБ -5.51 дБ 3:31 11-PAINTING (XV RE:RECORDED) DR4 0.00 дБ -5.75 дБ 3:20 12-8AM (XV RE:RECORDED) -------------------------------------------------------------------------------- Количество треков: 12 Реальные значения DR: DR4 Частота: 48000 Гц Каналов: 2 Разрядность: 24 Битрейт: 1876 кбит/с Кодек: FLAC ================================================================================

Всего файлов в раздаче: 14 
01 - FINAL DESTINATION (XV RE_RECORDED).flac46.29 MB
02 - COUNTERFEITS & LIES (XV RE_RECORDED).flac50.27 MB
03 - SOMEDAY (XV RE_RECORDED).flac53.03 MB
04 - FICTION (XV RE_RECORDED).flac47.88 MB
05 - JUST TONIGHT (XV RE_RECORDED).flac44.28 MB
06 - 24-7 (XV RE_RECORDED).flac43.14 MB
07 - DOORS (XV RE_RECORDED).flac44.99 MB
08 - DEJA VU (XV RE_RECORDED).flac56.26 MB
09 - SURVIVE (XV RE_RECORDED).flac48.58 MB
10 - MY ADDICTION (XV RE_RECORDED).flac58.26 MB
Показать все файлы

Кто качает (только для создателя раздачи и модераторов): Локальные пиры отсутствуют

Комментарии


Зарегистрируйтесь чтобы добавить комментарий
Торрент клиент
byTorrent - программа для загрузки торрент-файлов.

Скачать byTorrent.exe (1,5 МБ)

Скачать byTorrent.zip (0,6 МБ)

Поддержи torrent.by
российских рублей
(300 российских рублей это 4$)

Обратная связь rss

End game ©