↑↓torrent.by
Поиск
Логин:  Регистрация
Пароль:

Последнее кумите / The Last Kumite (2024) BDRip 720p от DoMiNo & селезень | P2 | ViruseProject

download Скачать торрент-файл   magnet Магнитная ссылка Размер: 6.82 GB Добавлен: il68k 2024-06-01 16:08
Пиры будут получены из сети DHT
Последний сидер был замечен 2024-06-06 04:49
Информация о фильме Название: Последнее кумите Оригинальное название: The Last Kumite Год выхода: 2024 Жанр: боевик Режиссер: Росс В. Кларксон В ролях: Матис Ландвер, Маттиас Хьюз, Курт МакКинни, Билли Блэнкс, Синтия Ротрок, Мишель Кисси, Монья Мула и др. О фильме: Став чемпионом Нью-Йорка по каратэ, Майкл Риверс даёт обещание дочке Бри повесить чёрный пояс на гвоздик и уйти на покой. Сделать он это не успевает, ведь уже на вечеринке, посвящённой чемпионству Майкла, к нему подкатывает таинственный незнакомец с предложением поехать в некую восточноевропейскую страну и поучаствовать в боях без правил. Победителю в «кумитэ» обещан миллион долларов. Но даже такая сумма не привлекает Майкла. Тогда незнакомец даёт понять, что его предложение не из тех, от которых можно отказаться. Он берёт в заложницы несовершеннолетнюю Бри, и Майклу приходится согласиться снова начать махать руками и ногами ради спасения дочери. Старомодный каратэ-боевик, словно снятый в середине 80-х. Напоминает, что всё же это современный фильм, морщины на лицах прославленных «каратэков» (а в «Последнем кумитэ» снялись Синтия Ротрок, Билли Блэнкс и Маттиас Хьюс), да очень качественное изображение, которое позволяет хорошо рассмотреть постановку многочисленных боёв. Страна: США Продолжительность: 01:45:01 Перевод: Профессиональный (двухголосый, закадровый) | ViruseProject Субтитры: Английские Файл Формат: Matroska Качество: BDRip 720p | Исх.The.Last.Kumite.2024.COMPLETE.BLURAY-UNTOUCHED Видео: 1280x720 at 23.976 fps, x264@L4.1, ~8258 kbps Аудио 1: AC3, 2 ch, ~384 kbps - | Русский | Аудио 2: AC3, 6 ch, ~640 kbps - | Английский | Формат субтитров: softsub (SRT) ***Рип от: -=DoMiNo=-
[+] M/I x264 : frame I:1192 Avg QP:16.70 size:127606 x264 : frame P:31584 Avg QP:17.97 size: 73410 x264 : frame B:118580 Avg QP:19.91 size: 34116 x264 : consecutive B-frames: 2.0% 2.7% 6.6% 17.6% 16.7% 39.6% 5.4% 1.8% 2.1% 2.5% 1.2% 0.5% 0.5% General Unique ID : 4476919816896074150690126354041949187 (0x35E39304F4AE213B666F35465A64C03) Complete name : T:The.Last.Kumite.2024.BDRip.720p.x264.seleZen.mkv Format : Matroska Format version : Version 4 File size : 6.82 GiB Duration : 1 h 45 min Overall bit rate : 9 283 kb/s Frame rate : 23.976 FPS Movie name : The.Last.Kumite.2024.BDRip.720p.x264.seleZen Encoded date : 2024-06-01 11:34:38 UTC Writing application : mkvmerge v84.0 ('Sleeper') 64-bit Writing library : libebml v1.4.5 + libmatroska v1.7.1 Cover : Yes Attachments : cover.jpg / small_cover.jpg Video ID : 1 Format : AVC Format/Info : Advanced Video Codec Format profile : High@L4.1 Format settings : CABAC / 9 Ref Frames Format settings, CABAC : Yes Format settings, Reference : 9 frames Codec ID : V_MPEG4/ISO/AVC Duration : 1 h 45 min Bit rate : 8 258 kb/s Width : 1 280 pixels Height : 720 pixels Display aspect ratio : 16:9 Frame rate mode : Constant Frame rate : 23.976 (24000/1001) FPS Color space : YUV Chroma subsampling : 4:2:0 Bit depth : 8 bits Scan type : Progressive Bits/(Pixel*Frame) : 0.374 Stream size : 6.07 GiB (89%) Title : -=DoMiNo=- Writing library : x264 core 164 r3191 -DoMiNo Encoding settings : cabac=1 / ref=9 / deblock=1:-3:-2 / analyse=0x3:0x133 / me=umh / subme=10 / psy=1 / psy_rd=1.03:0.05 / mixed_ref=1 / me_range=32 / chroma_me=1 / trellis=2 / 8x8dct=1 / cqm=0 / deadzone=21,11 / fast_pskip=0 / chroma_qp_offset=-3 / threads=22 / lookahead_threads=5 / sliced_threads=0 / nr=0 / decimate=1 / interlaced=0 / bluray_compat=0 / constrained_intra=0 / bframes=12 / b_pyramid=2 / b_adapt=2 / b_bias=0 / direct=3 / weightb=1 / open_gop=0 / weightp=2 / keyint=240 / keyint_min=23 / scenecut=40 / intra_refresh=0 / rc_lookahead=60 / rc=crf / mbtree=0 / crf=18.0 / qcomp=0.60 / qpmin=0 / qpmax=69 / qpstep=4 / vbv_maxrate=50000 / vbv_bufsize=62500 / crf_max=0.0 / nal_hrd=none / filler=0 / ip_ratio=1.37 / pb_ratio=1.30 / aq=3:0.80 Language : English Default : Yes Forced : No Audio #1 ID : 2 Format : AC-3 Format/Info : Audio Coding 3 Commercial name : Dolby Digital Codec ID : A_AC3 Duration : 1 h 45 min Bit rate mode : Constant Bit rate : 384 kb/s Channel(s) : 2 channels Channel layout : L R Sampling rate : 48.0 kHz Frame rate : 31.250 FPS (1536 SPF) Compression mode : Lossy Stream size : 288 MiB (4%) Title : ViruseProject Language : Russian Service kind : Complete Main Default : Yes Forced : No Dialog Normalization : -31 dB dialnorm_Average : -31 dB dialnorm_Minimum : -31 dB dialnorm_Maximum : -31 dB Audio #2 ID : 3 Format : AC-3 Format/Info : Audio Coding 3 Commercial name : Dolby Digital Codec ID : A_AC3 Duration : 1 h 45 min Bit rate mode : Constant Bit rate : 640 kb/s Channel(s) : 6 channels Channel layout : L R C LFE Ls Rs Sampling rate : 48.0 kHz Frame rate : 31.250 FPS (1536 SPF) Compression mode : Lossy Stream size : 481 MiB (7%) Language : English Service kind : Complete Main Default : No Forced : No Dialog Normalization : -31 dB cmixlev : -4.5 dB surmixlev : -6 dB dialnorm_Average : -31 dB dialnorm_Minimum : -31 dB dialnorm_Maximum : -31 dB Text ID : 4 Format : UTF-8 Codec ID : S_TEXT/UTF8 Codec ID/Info : UTF-8 Plain Text Duration : 1 h 39 min Bit rate : 41 b/s Frame rate : 0.178 FPS Count of elements : 1057 Stream size : 30.0 KiB (0%) Language : English Default : No Forced : No Menu 00:00:00.000 : Глава 1 00:07:57.727 : Глава 2 00:15:35.684 : Глава 3 00:25:04.669 : Глава 4 00:33:17.787 : Глава 5 00:40:26.215 : Глава 6 00:49:09.905 : Глава 7 00:56:32.347 : Глава 8 01:03:37.480 : Глава 9 01:12:37.853 : Глава 10 01:23:32.132 : Глава 11 01:30:34.053 : Глава 12

Всего файлов в раздаче: 1 
The.Last.Kumite.2024.BDRip.720p.x264.seleZen.mkv6.82 GB

Похожие раздачи по запросу - Последнее
2024-06-04 magnet Последнее королевство: Семь королей должны умереть / The Last Kingdom: Seven Kings Must Die (2023) BDRip от New-Team | P | LostFilm 1.46 GB ↑ 0 ↓ 0
2024-06-03 magnet Последнее королевство: Семь королей должны умереть / The Last Kingdom: Seven Kings Must Die (2023) BDRip-AVC от DoMiNo & селезень | P | HDRezka Studio, LostFilm 2.14 GB ↑ 0 ↓ 0
2024-06-03 magnet Последнее королевство: Семь королей должны умереть / The Last Kingdom: Seven Kings Must Die (2023) BDRip 720p от DoMiNo & селезень | P | HDRezka Studio, Jaskier, TVShows, LostFilm 5.32 GB ↑ 0 ↓ 0
2024-06-02 magnet Последнее королевство: Семь королей должны умереть / The Last Kingdom: Seven Kings Must Die (2023) BDRip 1080p от MegaPeer | P 11.03 GB ↑ 0 ↓ 0
2024-06-02 magnet Последнее королевство: Семь королей должны умереть / The Last Kingdom: Seven Kings Must Die (2023) BDRip 720p от MegaPeer | P 5.80 GB ↑ 0 ↓ 0
2024-06-02 magnet Последнее королевство: Семь королей должны умереть / The Last Kingdom: Seven Kings Must Die (2023) BDRip от MegaPeer | P 2.18 GB ↑ 0 ↓ 0
2024-06-02 magnet Последнее королевство: Семь королей должны умереть / The Last Kingdom: Seven Kings Must Die (2023) BDRip от MegaPeer | P | HDRezka Studio 1.46 GB ↑ 0 ↓ 0

Кто качает (только для создателя раздачи и модераторов): Локальные пиры отсутствуют

Комментарии


Зарегистрируйтесь чтобы добавить комментарий
Торрент клиент
byTorrent - программа для загрузки торрент-файлов.

Скачать byTorrent.exe (1,5 МБ)

Скачать byTorrent.zip (0,6 МБ)

Поддержи torrent.by
российских рублей
(300 российских рублей это 4$)

Обратная связь rss

End game ©