↑↓torrent.by
Поиск
Логин:  Регистрация
Пароль:

Каскадёры / Каскадер / The Fall Guy (2024) WEB-DL-HEVC 2160p | 4K | SDR | D | Line | UKR

download Скачать торрент-файл   magnet Магнитная ссылка Размер: 9.85 GB Добавлен: 2024-06-01 17:00
Пиры будут получены из сети DHT
Последний сидер был замечен 2024-06-08 13:18
Информация о фильме Название: Каскадёры Оригинальное название: The Fall Guy Год выхода: 2024 Жанр: боевик, драма, комедия Режиссер: Дэвид Литч В ролях: Райан Гослинг, Эмили Блант, Аарон Тейлор-Джонсон, Ханна Уэддингхэм, Уинстон Дьюк, Тереза Палмер, Стефани Сюй, Бен Найт, Matuse, Адам Данн О фильме: После травмы на съёмках каскадёр Кольт Сиверс уже полтора года как ушёл из профессии, работает парковщиком и винит себя за тот неудавшийся трюк. Внезапно ему звонит продюсерша и просит срочно прилететь в Австралию, где его бывшая девушка-оператор Джоди снимает свой режиссёрский дебют, масштабную фантастику «Металшторм». По приезде выясняется, что Джоди видеть его не рада, а также дело осложнятся пропажей исполнителя главной роли — звезды боевиков, у которого Кольт когда-то был дублёром. Страна: США, Австралия, Канада Продолжительность: 02:07:03 Перевод: Дублированный | Line (Украинский) Файл Кодек: H.265 Качество: WEB-DL 2160p Видео: HEVC, 3840x1600 (2.40:1), 23.976 fps, 10.1 Mb/s, 10 bit Аудио 1: AC3, 48.0 kHz, 2 ch, 192 kb/s | UKR Аудио 2: E-AC3 JOC, 48.0 kHz, 6 ch, 768 kb/s | ENG Субтитры: английские (full, SDH) Трейлер
[+] MIGeneral Unique ID : 178220444389573468217117411756233667515 (0x8614025170D82F92D30CB1CF8C0733BB) Complete name : The.Fall.Guy.2024.WEB-DL.2160p.SDR.mkv Format : Matroska Format version : Version 4 File size : 9.85 GiB Duration : 2 h 7 min Overall bit rate : 11.1 Mb/s Frame rate : 23.976 FPS Movie name : Каскадер / The Fall Guy (2024) Encoded date : 2024-05-28 23:18:44 UTC Writing application : mkvmerge v83.0 ('Circle Of Friends') 64-bit Writing library : libebml v1.4.5 + libmatroska v1.7.1 Cover : Yes Attachments : cover.jpg Video ID : 1 Format : HEVC Format/Info : High Efficiency Video Coding Format profile : Main 10@L5@Main Codec ID : V_MPEGH/ISO/HEVC Duration : 2 h 7 min Bit rate : 10.1 Mb/s Width : 3 840 pixels Height : 1 600 pixels Display aspect ratio : 2.40:1 Frame rate mode : Constant Frame rate : 23.976 (24000/1001) FPS Color space : YUV Chroma subsampling : 4:2:0 Bit depth : 10 bits Bits/(Pixel*Frame) : 0.069 Stream size : 9.00 GiB (91%) Title : The Fall Guy (2024), WEB-DL, UHD 4K, 2160p, SDR Language : English Default : Yes Forced : No Color range : Limited Color primaries : BT.709 Transfer characteristics : BT.709 Matrix coefficients : BT.709 Audio #1 ID : 2 Format : AC-3 Format/Info : Audio Coding 3 Commercial name : Dolby Digital Codec ID : A_AC3 Duration : 2 h 6 min Bit rate mode : Constant Bit rate : 192 kb/s Channel(s) : 2 channels Channel layout : L R Sampling rate : 48.0 kHz Frame rate : 31.250 FPS (1536 SPF) Compression mode : Lossy Stream size : 174 MiB (2%) Title : Dub (Line) AC3 2.0 192 kbps Language : Ukrainian Service kind : Complete Main Default : Yes Forced : Yes Audio #2 ID : 3 Format : E-AC-3 JOC Format/Info : Enhanced AC-3 with Joint Object Coding Commercial name : Dolby Digital Plus with Dolby Atmos Codec ID : A_EAC3 Duration : 2 h 6 min Bit rate mode : Constant Bit rate : 768 kb/s Channel(s) : 6 channels Channel layout : L R C LFE Ls Rs Sampling rate : 48.0 kHz Frame rate : 31.250 FPS (1536 SPF) Compression mode : Lossy Delay relative to video : 13 ms Stream size : 694 MiB (7%) Title : Original E-AC3 JOC 5.1 768 kbps Language : English Service kind : Complete Main Default : Yes Forced : No Complexity index : 16 Number of dynamic objects : 15 Bed channel count : 1 channel Bed channel configuration : LFE Text #1 ID : 4 Format : UTF-8 Codec ID : S_TEXT/UTF8 Codec ID/Info : UTF-8 Plain Text Duration : 2 h 6 min Bit rate : 92 b/s Frame rate : 0.350 FPS Count of elements : 2648 Stream size : 85.6 KiB (0%) Title : English Language : English Default : No Forced : No Text #2 ID : 5 Format : UTF-8 Codec ID : S_TEXT/UTF8 Codec ID/Info : UTF-8 Plain Text Duration : 2 h 6 min Bit rate : 103 b/s Frame rate : 0.389 FPS Count of elements : 2948 Stream size : 96.1 KiB (0%) Title : English (SDH) Language : English Default : No Forced : No Menu 00:00:00.000 : en:Chapter 01 00:05:53.687 : en:Chapter 02 00:11:19.804 : en:Chapter 03 00:16:34.160 : en:Chapter 04 00:21:20.321 : en:Chapter 05 00:27:00.120 : en:Chapter 06 00:35:48.398 : en:Chapter 07 00:40:11.161 : en:Chapter 08 00:44:50.607 : en:Chapter 09 00:54:12.293 : en:Chapter 10 00:59:57.931 : en:Chapter 11 01:06:10.804 : en:Chapter 12 01:12:10.622 : en:Chapter 13 01:18:48.937 : en:Chapter 14 01:27:36.131 : en:Chapter 15 01:32:47.317 : en:Chapter 16 01:40:14.639 : en:Chapter 17 01:45:10.852 : en:Chapter 18 01:50:55.655 : en:Chapter 19 01:59:36.760 : en:Chapter 20
[+] Скриншоты

Всего файлов в раздаче: 1 
The.Fall.Guy.2024.WEB-DL.2160p.SDR.mkv9.85 GB

Похожие раздачи по запросу - Каскадёры
2024-06-10 magnet Каскадёры / The Fall Guy (2024) UHD WEB-DL HEVC 2160p | 4K | HDR | Dolby Vision Profile 8 | D, P 24.51 GB ↑ 0 ↓ 1
2024-06-10 magnet Каскадёры / The Fall Guy (2024) UHD WEB-DL HEVC 2160p | 4K | SDR | D, P 16.06 GB ↑ 0 ↓ 2
2024-06-10 magnet Каскадёры / The Fall Guy (2024) UHD WEB-DL HEVC 2160p | 4K | Dolby Vision TV | D, P 15.58 GB ↑ 0 ↓ 0
2024-06-08 magnet Каскадёры / The Fall Guy (2024) WEB-DLRip-AVC от ExKinoRay | D 2.19 GB ↑ 0 ↓ 0
2024-05-31 magnet Каскадёры / The Fall Guy (2024) WEB-DLRip-AVC | D, P 1.09 GB ↑ 0 ↓ 0
2024-05-30 magnet Каскадёры / The Fall Guy (2024) WEB-DL 1080p | D, P 8.97 GB ↑ 1 ↓ 2
2024-05-30 magnet Каскадёры / Каскадер / The Fall Guy (2024) WEB-DL 1080p | D | Line | UKR 8.57 GB ↑ 0 ↓ 0

Кто качает (только для создателя раздачи и модераторов): Локальные пиры отсутствуют

Комментарии


Зарегистрируйтесь чтобы добавить комментарий
Торрент клиент
byTorrent - программа для загрузки торрент-файлов.

Скачать byTorrent.exe (1,5 МБ)

Скачать byTorrent.zip (0,6 МБ)

Поддержи torrent.by
российских рублей
(300 российских рублей это 4$)

Обратная связь rss

End game ©