↑↓torrent.by
Поиск
Логин:  Регистрация
Пароль:

Короли улиц / Street Kings (2008) WEB-DLRip-AVC от DoMiNo | D, P | Open Matte

download Скачать торрент-файл   magnet Магнитная ссылка Размер: 2.26 GB Добавлен: 2024-06-01 17:00
Пиры будут получены из сети DHT
Последний сидер был замечен 2024-06-01 22:42
Информация о фильме Название: Короли улиц Оригинальное название: Street Kings Год выхода: 2008 Жанр: боевик, триллер, драма, криминал Режиссер: Дэвид Эйр В ролях: Киану Ривз, Форест Уитакер, Крис Эванс, Хью Лори, Джей Мор, Терри Крюс, Наоми Харрис, Коммон, Джейсон Тэйлор О фильме: Полицейский из Лос-Анджелеса ни разу в жизни не задумывался над тем, что его может ожидать за гранью собственного уютного мира. Однако со смертью любимой жены в его жизнь входит темная, беспощадная, отчаянная пустота. Ладлоу вынужден действовать, когда его же собственные друзья-соратники обвиняют его в убийстве. Так начинается борьба человека за свое место в мире, который все больше и больше контролируется внешними силами. Страна: США Выпущено: Fox Searchlight Pictures, Regency Enterprises, 3 Arts Entertainment, Dune Entertainment III Продолжительность: 01:49:02 Перевод: Профессиональный (дублированный), профессиональный (многоголосый закадровый) Субтитры: Russian, English Файл Формат: Matroska Качество: WEB-DLRip-AVC | Open Matte Видео: 1024x576 (16:9) at 23.976 fps, x264, ~2076 kbps Аудио 1: AC3, 6 ch, ~448 kbps - | Русский | | DUB Аудио 2: AC3, 6 ch, ~448 kbps - | Русский | | MVO (Кравец) Формат субтитров: softsub (SRT) ***Релиз от: -=DoMiNo=-
[+] M/Ix264 : frame I:1290 Avg QP:16.26 size: 56294 x264 : frame P:36636 Avg QP:18.31 size: 21559 x264 : frame B:118944 Avg QP:20.64 size: 7025 General Unique ID : 22618989175447946798003812118410114079 (0x110442446B0555C2706B445A67A5341F) Complete name : D:Street.Kings.2008.Open.Matte.WEB-DLRip.x264.mkv Format : Matroska Format version : Version 4 File size : 2.26 GiB Duration : 1 h 49 min Overall bit rate : 2 973 kb/s Movie name : Street.Kings.2008.Open.Matte.WEB-DLRip.x264 Encoded date : UTC 2022-06-28 19:56:23 Writing application : mkvmerge v63.0.0 ('Everything') 64-bit Writing library : libebml v1.4.2 + libmatroska v1.6.4 Cover : Yes Attachments : cover.jpg / small_cover.jpg Video ID : 1 Format : AVC Format/Info : Advanced Video Codec Format profile : High@L4.1 Format settings : CABAC / 10 Ref Frames Format settings, CABAC : Yes Format settings, Reference : 10 frames Codec ID : V_MPEG4/ISO/AVC Duration : 1 h 49 min Bit rate : 2 076 kb/s Width : 1 024 pixels Height : 576 pixels Display aspect ratio : 16:9 Frame rate mode : Constant Frame rate : 23.976 (24000/1001) FPS Color space : YUV Chroma subsampling : 4:2:0 Bit depth : 8 bits Scan type : Progressive Bits/(Pixel*Frame) : 0.147 Stream size : 1.58 GiB (70%) Title : -=DoMiNo=- Writing library : x264 core 164 by -=DoMiNo=- Encoding settings : cabac=1 / ref=10 / deblock=1:-2:-2 / analyse=0x3:0x131 / me=umh / subme=11 / psy=1 / psy_rd=1.05:0.15 / mixed_ref=1 / me_range=32 / chroma_me=1 / trellis=2 / 8x8dct=1 / cqm=0 / deadzone=21,11 / fast_pskip=0 / chroma_qp_offset=-3 / threads=18 / lookahead_threads=4 / sliced_threads=0 / nr=0 / decimate=1 / interlaced=0 / bluray_compat=0 / constrained_intra=0 / bframes=10 / b_pyramid=2 / b_adapt=2 / b_bias=0 / direct=1 / weightb=1 / open_gop=0 / weightp=2 / keyint=250 / keyint_min=23 / scenecut=40 / intra_refresh=0 / rc_lookahead=60 / rc=crf / mbtree=0 / crf=19.0 / qcomp=0.70 / qpmin=0 / qpmax=69 / qpstep=4 / vbv_maxrate=50000 / vbv_bufsize=62500 / crf_max=0.0 / nal_hrd=none / filler=0 / ip_ratio=1.35 / pb_ratio=1.25 / aq=1:0.80 Language : English Default : Yes Forced : No Color range : Limited Color primaries : BT.709 Transfer characteristics : BT.709 Matrix coefficients : BT.709 Audio #1 ID : 2 Format : AC-3 Format/Info : Audio Coding 3 Commercial name : Dolby Digital Codec ID : A_AC3 Duration : 1 h 48 min Bit rate mode : Constant Bit rate : 448 kb/s Channel(s) : 6 channels Channel layout : L R C LFE Ls Rs Sampling rate : 48.0 kHz Frame rate : 31.250 FPS (1536 SPF) Compression mode : Lossy Stream size : 349 MiB (15%) Title : DUB Language : Russian Service kind : Complete Main Default : Yes Forced : Yes Audio #2 ID : 3 Format : AC-3 Format/Info : Audio Coding 3 Commercial name : Dolby Digital Codec ID : A_AC3 Duration : 1 h 48 min Bit rate mode : Constant Bit rate : 448 kb/s Channel(s) : 6 channels Channel layout : L R C LFE Ls Rs Sampling rate : 48.0 kHz Frame rate : 31.250 FPS (1536 SPF) Compression mode : Lossy Stream size : 349 MiB (15%) Title : MVO Кравец Language : Russian Service kind : Complete Main Default : No Forced : No Text #1 ID : 4 Format : UTF-8 Codec ID : S_TEXT/UTF8 Codec ID/Info : UTF-8 Plain Text Duration : 38 min 12 s Bit rate : 2 b/s Count of elements : 11 Stream size : 641 Bytes (0%) Title : Forced Language : Russian Default : Yes Forced : No Text #2 ID : 5 Format : UTF-8 Codec ID : S_TEXT/UTF8 Codec ID/Info : UTF-8 Plain Text Duration : 1 h 43 min Bit rate : 82 b/s Count of elements : 1212 Stream size : 62.8 KiB (0%) Title : Full 1 Language : Russian Default : No Forced : No Text #3 ID : 6 Format : UTF-8 Codec ID : S_TEXT/UTF8 Codec ID/Info : UTF-8 Plain Text Duration : 1 h 39 min Bit rate : 82 b/s Count of elements : 1328 Stream size : 60.3 KiB (0%) Title : Full 2 Language : Russian Default : No Forced : No Text #4 ID : 7 Format : UTF-8 Codec ID : S_TEXT/UTF8 Codec ID/Info : UTF-8 Plain Text Duration : 1 h 38 min Bit rate : 64 b/s Count of elements : 1334 Stream size : 46.2 KiB (0%) Language : English Default : No Forced : No Menu 00:00:00.000 : en:Main Title / One Bad Day 00:04:01.367 : en:Blown Away 00:10:13.238 : en:LA's Deadliest White Boy 00:14:46.136 : en:A Cop Who Burns Cops 00:18:16.554 : en:Gates Of Hell 00:21:21.197 : en:Gangbangers 00:24:43.691 : en:Tip Of The Spear 00:28:43.973 : en:Bad Breeds Bad 00:30:08.974 : en:Got A Complaint? 00:34:25.314 : en:Two-Way Street 00:38:19.381 : en:Serious Overkill 00:41:16.850 : en:Kicked Loose 00:44:57.696 : en:Turn The Page 00:47:08.284 : en:Brown Sugar 00:50:12.218 : en:Not Quick Enough 00:54:21.550 : en:Third Strike 00:57:36.827 : en:Pariah 01:00:35.299 : en:A Rung In The Ladder 01:04:00.671 : en:Framed 01:07:31.673 : en:Not In My Name 01:11:07.889 : en:Gunfighters 01:15:25.688 : en:Who The Hell Are You? 01:22:25.942 : en:Giving Up The Big Dog 01:28:33.809 : en:Burying Himself 01:32:35.801 : en:King's X 01:35:53.582 : en:Correcting a Flaw 01:40:30.066 : en:No Other Outcome 01:42:48.163 : en:End Titles
[+] Примечание & Сравнения:Open Matte-версия фильма имеет другое наполнение кадра по сравнению с Blu-ray.
[+] Скриншоты

Всего файлов в раздаче: 1 
Street.Kings.2008.Open.Matte.WEB-DLRip.x264.mkv2.26 GB

Похожие раздачи по запросу - Короли
2024-06-02 magnet Короли улиц / Street Kings (2008) WEB-DLRip 720p от SuperMin | D, P | Open Matte 3.31 GB ↑ 0 ↓ 0
2024-06-02 magnet Короли улиц / Street Kings (2008) BDRemux 1080p | D, P, А, L1 31.90 GB ↑ 0 ↓ 1
2024-04-26 magnet Дэн Джонс - Плантагенеты. Короли и королевы, создавшие Англию (2024) MP3 1.63 GB ↑ 0 ↓ 0
2023-06-30 magnet Валерий Шарапов - Короли городских окраин 5: Человек в чужой форме (2023) МР3 369.23 MB ↑ 0 ↓ 0

Кто качает (только для создателя раздачи и модераторов): Локальные пиры отсутствуют

Комментарии


Зарегистрируйтесь чтобы добавить комментарий
Торрент клиент
byTorrent - программа для загрузки торрент-файлов.

Скачать byTorrent.exe (1,5 МБ)

Скачать byTorrent.zip (0,6 МБ)

Поддержи torrent.by
российских рублей
(300 российских рублей это 4$)

Обратная связь rss

End game ©