↑↓torrent.by
Поиск
Логин:  Регистрация
Пароль:

Бекки в ярости / The Wrath of Becky (2023) BDRip 1080p от MegaPeer | D, P, P2, A

download Скачать торрент-файл   magnet Магнитная ссылка Размер: 7.87 GB Добавлен: 2024-06-01 17:00
Пиры будут получены из сети DHT
Последний сидер был замечен 2024-06-08 20:01
Информация Название: Бекки в ярости Оригинальное название: The Wrath of Becky Год выхода: 2023 Жанр: Боевик, триллер Режиссер: Мэтт Энджел, Сьюзен Кут В ролях: Лулу Уилсон, Шонн Уильям Скотт, Дениз Бюрс, Джилл Ларсон, Майкл Сироу, Аарон Далла Вилла, Мэтт Энджел, Кортни Гейнс Описание: Через два года после тех ужасных событий Бекки под опекой доброй пожилой женщиной пытается наладить жизнь, но в их дом вламываются злоумышленники и похищают любимую собачку. Теперь Бекки придётся снова применить к негодяям старые добрые методы защиты дорогих ей людей. Страна: США Студия: BoulderLight Pictures, Fluffy Bear Studios, Media Finance Capital, Post Film, Quiver Distribution, RainMaker Films, Yale Productions Продолжительность: 01:24:10 Перевод: * Профессиональный (полное дублирование) | Lucky Production * Профессиональный (многоголосый закадровый) | HDRezka Studio * Профессиональный (многоголосый закадровый) | TVShows * Профессиональный (двухголосый, закадровый) | Кубик в кубе * Авторский (одноголосый закадровый) | М. Яроцкий Файл Качество: BDRip 1080p Исходник: The.Wrath.of.Becky.2023.MULTi.COMPLETE.BLURAY-MONUMENT Формат: MKV Кодек: MPEG-4 AVC Видео: 1920x800 (2.40:1), 24 fps, MPEG-4 AVC ~ 9031 Kbps avg, 0.245 bit/pixel Аудио: AC3, 48 kHz, 6 ch, ~448.00 kbps avg | русский | DUB | Lucky Production Аудио: E-AC3, 48 kHz, 6 ch, ~448.00 kbps avg | русский | DUB | Lucky Production Аудио: AC3, 48 kHz, 6 ch, ~448.00 kbps avg | русский | DVO | Кубик в кубе | 18+ Аудио: E-AC3, 48 kHz, 6 ch, ~448.00 kbps avg | русский | DVO | Кубик в кубе | 18+ Аудио: AC3, 48 kHz, 6 ch, ~448.00 kbps avg | русский | MVO | HDRezka Studio Аудио: AC3, 48 kHz, 6 ch, ~448.00 kbps avg | русский | MVO | HDRezka Studio | 18+ Аудио: AC3, 48 kHz, 6 ch, ~384.00 kbps avg | русский | MVO | TVShows Аудио: AC3, 48 kHz, 6 ch, ~640.00 kbps avg | русский | AVO | М. Яроцкий Аудио: AC3, 48 kHz, 6 ch, ~640.00 kbps avg | английский | Субтитры: Русские (Forced, Full), Английские (Full, SDH)
[+] Инфо-файлОбщее Уникальный идентификатор : 170350143705441197612135349288767070699 (0x80283E89168B24369B9B857182C021EB) Полное имя : The.Wrath.of.Becky.2023.1080p.BluRay.DD.5.1.x264-MegaPeer.mkv Формат : Matroska Версия формата : Version 4 Размер файла : 7,87 Гбайт Продолжительность : 1 ч. 24 мин. Общий битрейт : 13,4 Мбит/сек Частота кадров : 24,000 кадра/сек Название фильма : Бекки в ярости / The Wrath of Becky (2023) от stillet@MegaPeer Дата кодирования : 2024-06-01 07:51:53 UTC Программа кодирования : mkvmerge v15.0.0 ('Duel with the Devil') 64-bit Библиотека кодирования : libebml v1.3.5 + libmatroska v1.4.5 Обложка : Yes Attachments : cover.jpg Видео Идентификатор : 1 Формат : AVC Формат/Информация : Advanced Video Codec Профиль формата : High@L4.1 Настройки формата : CABAC / 5 Ref Frames Параметр CABAC формата : Да Параметр RefFrames формата : 5 кадров Идентификатор кодека : V_MPEG4/ISO/AVC Продолжительность : 1 ч. 24 мин. Битрейт : 9 031 Кбит/сек Ширина : 1 920 пикселей Высота : 800 пикселей Соотношение сторон дисплея : 2,40:1 Режим частоты кадров : Постоянный Частота кадров : 24,000 кадра/сек Цветовое пространство : YUV Цветовая субдискретизация : 4:2:0 Битовая глубина : 8 бит Тип развёртки : Прогрессивная Бит/(Пиксели*Кадры) : 0.245 Размер потока : 5,31 Гбайт (67%) Библиотека кодирования : x264 core 164 r3156+57M stillet t_mod_New Параметры библиотеки кодирования : cabac=1 / ref=5 / deblock=1:-3:-3 / analyse=0x3:0x113 / me=umh / subme=10 / psy=1 / fade_compensate=0.00 / psy_rd=1.03:0.02 / mixed_ref=1 / me_range=32 / chroma_me=1 / trellis=2 / 8x8dct=1 / cqm=0 / deadzone=21,11 / fast_pskip=0 / chroma_qp_offset=-3 / threads=12 / lookahead_threads=3 / sliced_threads=0 / nr=0 / decimate=0 / interlaced=0 / bluray_compat=0 / constrained_intra=0 / fgo=0 / bframes=11 / b_pyramid=2 / b_adapt=2 / b_bias=0 / direct=3 / weightb=1 / open_gop=0 / weightp=2 / keyint=240 / keyint_min=24 / scenecut=40 / intra_refresh=0 / rc_lookahead=40 / rc=2pass / mbtree=0 / bitrate=9031 / ratetol=1.0 / qcomp=0.60 / qpmin=0:0:0 / qpmax=69:69:69 / qpstep=4 / cplxblur=20.0 / qblur=0.5 / vbv_maxrate=50000 / vbv_bufsize=62500 / nal_hrd=none / filler=0 / ip_ratio=1.40 / pb_ratio=1.30 / aq=1:1.10 / aq-sensitivity=10.00 / aq-factor=1.00:1.00:1.00 / aq2=0 / aq3=0 Язык : Английский По умолчанию : Да Принудительно : Нет Аудио #1 Идентификатор : 2 Формат : AC-3 Формат/Информация : Audio Coding 3 Коммерческое название : Dolby Digital Идентификатор кодека : A_AC3 Продолжительность : 1 ч. 24 мин. Вид битрейта : Постоянный Битрейт : 448 Кбит/сек Канал(-ы) : 6 каналов Расположение каналов : L R C LFE Ls Rs Частота дискретизации : 48,0 КГц Частота кадров : 31,250 кадров/сек (1536 SPF) Метод сжатия : С потерями Размер потока : 270 Мбайт (3%) Заголовок : DUB | Lucky Production Язык : Русский Вид сервиса : Complete Main По умолчанию : Да Принудительно : Да AC3_metadata cmixlev : -3.0 dB surmixlev : -3 dB Аудио #2 Идентификатор : 3 Формат : E-AC-3 Формат/Информация : Enhanced AC-3 Коммерческое название : Dolby Digital Plus Идентификатор кодека : A_EAC3 Продолжительность : 1 ч. 24 мин. Вид битрейта : Постоянный Битрейт : 448 Кбит/сек Канал(-ы) : 6 каналов Расположение каналов : L R C LFE Ls Rs Частота дискретизации : 48,0 КГц Частота кадров : 31,250 кадров/сек (1536 SPF) Метод сжатия : С потерями Размер потока : 270 Мбайт (3%) Заголовок : DUB | Lucky Production Язык : Русский Вид сервиса : Complete Main По умолчанию : Нет Принудительно : Нет Аудио #3 Идентификатор : 4 Формат : AC-3 Формат/Информация : Audio Coding 3 Коммерческое название : Dolby Digital Идентификатор кодека : A_AC3 Продолжительность : 1 ч. 24 мин. Вид битрейта : Постоянный Битрейт : 448 Кбит/сек Канал(-ы) : 6 каналов Расположение каналов : L R C LFE Ls Rs Частота дискретизации : 48,0 КГц Частота кадров : 31,250 кадров/сек (1536 SPF) Метод сжатия : С потерями Размер потока : 270 Мбайт (3%) Заголовок : DVO | Кубик в кубе | 18+ Язык : Русский Вид сервиса : Complete Main По умолчанию : Нет Принудительно : Нет AC3_metadata cmixlev : -3.0 dB surmixlev : -3 dB Аудио #4 Идентификатор : 5 Формат : E-AC-3 Формат/Информация : Enhanced AC-3 Коммерческое название : Dolby Digital Plus Идентификатор кодека : A_EAC3 Продолжительность : 1 ч. 24 мин. Вид битрейта : Постоянный Битрейт : 448 Кбит/сек Канал(-ы) : 6 каналов Расположение каналов : L R C LFE Ls Rs Частота дискретизации : 48,0 КГц Частота кадров : 31,250 кадров/сек (1536 SPF) Метод сжатия : С потерями Размер потока : 270 Мбайт (3%) Заголовок : DVO | Кубик в кубе | 18+ Язык : Русский Вид сервиса : Complete Main По умолчанию : Нет Принудительно : Нет Аудио #5 Идентификатор : 6 Формат : AC-3 Формат/Информация : Audio Coding 3 Коммерческое название : Dolby Digital Идентификатор кодека : A_AC3 Продолжительность : 1 ч. 24 мин. Вид битрейта : Постоянный Битрейт : 448 Кбит/сек Канал(-ы) : 6 каналов Расположение каналов : L R C LFE Ls Rs Частота дискретизации : 48,0 КГц Частота кадров : 31,250 кадров/сек (1536 SPF) Метод сжатия : С потерями Размер потока : 270 Мбайт (3%) Заголовок : MVO | HDRezka Studio Язык : Русский Вид сервиса : Complete Main По умолчанию : Нет Принудительно : Нет AC3_metadata cmixlev : -3.0 dB surmixlev : -3 dB Аудио #6 Идентификатор : 7 Формат : AC-3 Формат/Информация : Audio Coding 3 Коммерческое название : Dolby Digital Идентификатор кодека : A_AC3 Продолжительность : 1 ч. 24 мин. Вид битрейта : Постоянный Битрейт : 448 Кбит/сек Канал(-ы) : 6 каналов Расположение каналов : L R C LFE Ls Rs Частота дискретизации : 48,0 КГц Частота кадров : 31,250 кадров/сек (1536 SPF) Метод сжатия : С потерями Размер потока : 270 Мбайт (3%) Заголовок : MVO | HDRezka Studio | 18+ Язык : Русский Вид сервиса : Complete Main По умолчанию : Нет Принудительно : Нет AC3_metadata cmixlev : -3.0 dB surmixlev : -3 dB Аудио #7 Идентификатор : 8 Формат : AC-3 Формат/Информация : Audio Coding 3 Коммерческое название : Dolby Digital Идентификатор кодека : A_AC3 Продолжительность : 1 ч. 24 мин. Вид битрейта : Постоянный Битрейт : 384 Кбит/сек Канал(-ы) : 6 каналов Расположение каналов : L R C LFE Ls Rs Частота дискретизации : 48,0 КГц Частота кадров : 31,250 кадров/сек (1536 SPF) Метод сжатия : С потерями Размер потока : 231 Мбайт (3%) Заголовок : MVO | TVShows Язык : Русский Вид сервиса : Complete Main По умолчанию : Нет Принудительно : Нет AC3_metadata cmixlev : -3.0 dB surmixlev : -3 dB Аудио #8 Идентификатор : 9 Формат : AC-3 Формат/Информация : Audio Coding 3 Коммерческое название : Dolby Digital Идентификатор кодека : A_AC3 Продолжительность : 1 ч. 24 мин. Вид битрейта : Постоянный Битрейт : 640 Кбит/сек Канал(-ы) : 6 каналов Расположение каналов : L R C LFE Ls Rs Частота дискретизации : 48,0 КГц Частота кадров : 31,250 кадров/сек (1536 SPF) Метод сжатия : С потерями Размер потока : 385 Мбайт (5%) Заголовок : AVO | М. Яроцкий Язык : Русский Вид сервиса : Complete Main По умолчанию : Нет Принудительно : Нет AC3_metadata cmixlev : -3.0 dB surmixlev : -3 dB Аудио #9 Идентификатор : 10 Формат : AC-3 Формат/Информация : Audio Coding 3 Коммерческое название : Dolby Digital Идентификатор кодека : A_AC3 Продолжительность : 1 ч. 24 мин. Вид битрейта : Постоянный Битрейт : 640 Кбит/сек Канал(-ы) : 6 каналов Расположение каналов : L R C LFE Ls Rs Частота дискретизации : 48,0 КГц Частота кадров : 31,250 кадров/сек (1536 SPF) Метод сжатия : С потерями Размер потока : 385 Мбайт (5%) Язык : Английский Вид сервиса : Complete Main По умолчанию : Нет Принудительно : Нет AC3_metadata cmixlev : -3.0 dB surmixlev : -3 dB Текст #1 Идентификатор : 11 Формат : UTF-8 Идентификатор кодека : S_TEXT/UTF8 Идентификатор кодека/Информация : UTF-8 Plain Text Продолжительность : 1 ч. 16 мин. Битрейт : 2 бит/сек Частота кадров : 0,008 кадр/сек Число элементов : 36 Размер потока : 1,41 КиБ (0%) Заголовок : Forced | HDRezka Studio Язык : Русский По умолчанию : Да Принудительно : Да Текст #2 Идентификатор : 12 Формат : UTF-8 Идентификатор кодека : S_TEXT/UTF8 Идентификатор кодека/Информация : UTF-8 Plain Text Продолжительность : 1 ч. 18 мин. Битрейт : 79 бит/сек Частота кадров : 0,228 кадр/сек Число элементов : 1080 Размер потока : 45,9 КиБ (0%) Заголовок : Full | Кинопоиск HD Язык : Русский По умолчанию : Нет Принудительно : Нет Текст #3 Идентификатор : 13 Формат : UTF-8 Идентификатор кодека : S_TEXT/UTF8 Идентификатор кодека/Информация : UTF-8 Plain Text Продолжительность : 1 ч. 18 мин. Битрейт : 55 бит/сек Частота кадров : 0,232 кадр/сек Число элементов : 1100 Размер потока : 32,2 КиБ (0%) Заголовок : Full Язык : Английский По умолчанию : Нет Принудительно : Нет Текст #4 Идентификатор : 14 Формат : UTF-8 Идентификатор кодека : S_TEXT/UTF8 Идентификатор кодека/Информация : UTF-8 Plain Text Продолжительность : 1 ч. 23 мин. Битрейт : 60 бит/сек Частота кадров : 0,268 кадр/сек Число элементов : 1334 Размер потока : 37,0 КиБ (0%) Заголовок : SDH Язык : Английский По умолчанию : Нет Принудительно : Нет Меню 00:00:00.000 : Chapter 01 00:06:17.208 : Chapter 02 00:14:53.166 : Chapter 03 00:21:51.625 : Chapter 04 00:27:37.458 : Chapter 05 00:35:01.500 : Chapter 06 00:42:45.500 : Chapter 07 00:48:24.083 : Chapter 08 00:55:23.708 : Chapter 09 01:03:03.625 : Chapter 10 01:10:28.333 : Chapter 11 01:20:57.791 : Chapter 12
Релиз:

Всего файлов в раздаче: 1 
The.Wrath.of.Becky.2023.1080p.BluRay.DD.5.1.x264-MegaPeer.mkv7.87 GB

Похожие раздачи по запросу - Бекки
2024-06-11 magnet Бекки в ярости / The Wrath of Becky (2023) BDRip 1080p от селезень | D | Lucky Production 6.78 GB ↑ 0 ↓ 0
2024-06-07 magnet Бекки в ярости / The Wrath of Becky (2023) BDRemux 1080p | D, P, P2, A 19.09 GB ↑ 0 ↓ 0
2024-06-02 magnet Бекки в ярости / The Wrath of Becky (2023) BDRip 720p от DoMiNo & селезень | D | Lucky Production 2.79 GB ↑ 0 ↓ 0
2024-06-02 magnet Бекки в ярости / The Wrath of Becky (2023) BDRip-AVC от DoMiNo & селезень | D | Lucky Production 1.46 GB ↑ 0 ↓ 0
2024-06-01 magnet Бекки в ярости / The Wrath of Becky (2023) BDRip-AVC от New-Team | D, P 2.18 GB ↑ 0 ↓ 0
2024-06-01 magnet Бекки в ярости / The Wrath of Becky (2023) BDRip от MegaPeer | D 1.46 GB ↑ 0 ↓ 0
2024-03-19 magnet Бекки в ярости / The Wrath of Becky (2023) WEB-DL 720p от селезень | D 1.82 GB ↑ 0 ↓ 0

Комментарии


Зарегистрируйтесь чтобы добавить комментарий
Торрент клиент
byTorrent - программа для загрузки торрент-файлов.

Скачать byTorrent.exe (1,5 МБ)

Скачать byTorrent.zip (0,6 МБ)

Поддержи torrent.by
российских рублей
(300 российских рублей это 4$)

Обратная связь rss

End game ©