↑↓torrent.by
Поиск
Логин:  Регистрация
Пароль:

Остров изгоев / Soudain seuls (2023) WEB-DL 1080p от ELEKTRI4KA | D

download Скачать торрент-файл   magnet Магнитная ссылка Размер: 6.57 GB Раздают: 0 Качают: 1 Добавлен: 2024-06-01 17:00
Пиры будут получены из сети DHT
Последний сидер был замечен 2024-06-13 19:00
«Супружеская пара попадает в шторм и оказывается на необитаемом острове. Французский триллер о выживании в суровых условиях» Информация о фильме Название: Остров изгоев Оригинальное название: Soudain seuls Год выхода: 2023 Жанр: триллер, драма Режиссер: Тома Бидеген В ролях: Мелани Тьерри, Жиль Леллуш О фильме: Супружеская пара отправляется в долгожданное путешествие, которое быстро превращается в настоящее испытание. После крушения корабля они оказываются на необитаемом острове недалеко от Антарктиды, где шансы на выживание ничтожно малы. Им придется противостоять силам природы и диким животным, находить пропитание и укрытие. Выпущено: Франция, Исландия, Бельгия / Artémis Productions, BE TV, Canal+ Продолжительность: 01:50:36 Озвучивание: Дублированное | Велес Файл Формат: MKV Качество: WEB-DL 1080p Видео: MPEG-4 AVC, 7099 Kb/s, 1920x800 Аудио: Russian: AC3, 384 Kb/s (6 ch) / E-AC3, 384 Kb/s (6 ch), French: E-AC3, 640 Kb/s (6 ch) Субтитры: Russian (SDH) unofficial , French Дополнительно: Нет Релиз группы:
[+] Инфо-файл:Complete name: Ostrov.izgoev.2023.WEB-DL.1080p.ELEKTRI4KA.mkv Format: Matroska Format version: Version 4 File size: 6.57 GiB Duration: 1 h 50 min Overall bit rate: 8 510 kb/s Movie name: Ostrov.izgoev.2023.WEB-DL.1080p.ELEKTRI4KA. Encoded date: UTC 2024-06-01 09:29:43 Writing application: mkvmerge v8.3.0 ('Over the Horizon') 64bit Writing library: libebml v1.3.1 + libmatroska v1.4.2 Video ID: 1 Format: AVC Format/Info: Advanced Video Codec Format profile: High@L4 Format settings: CABAC / 4 Ref Frames Format settings, CABAC: Yes Format settings, Reference frames: 4 frames Codec ID: V_MPEG4/ISO/AVC Duration: 1 h 50 min Bit rate mode: Constant Bit rate: 7 099 kb/s Nominal bit rate: 10 000 kb/s Width: 1 920 pixels Height: 800 pixels Display aspect ratio: 2.40:1 Frame rate mode: Constant Frame rate: 24.000 FPS Color space: YUV Chroma subsampling: 4:2:0 Bit depth: 8 bits Scan type: Progressive Bits/(Pixel*Frame): 0.193 Stream size: 5.48 GiB (83%) Default: Yes Forced: No Color range: Limited Color primaries: BT.709 Transfer characteristics: BT.709 Matrix coefficients: BT.709 Audio #1 ID: 2 Format: AC-3 Format/Info: Audio Coding 3 Commercial name: Dolby Digital Codec ID: A_AC3 Duration: 1 h 50 min Bit rate mode: Constant Bit rate: 384 kb/s Channel(s): 6 channels Channel layout: L R C LFE Ls Rs Sampling rate: 48.0 kHz Frame rate: 31.250 FPS (1536 SPF) Compression mode: Lossy Stream size: 304 MiB (5%) Title: DUB AC3 (Veles) Language: Russian Service kind: Complete Main Default: Yes Forced: Yes Audio #2 ID: 3 Format: E-AC-3 Format/Info: Enhanced AC-3 Commercial name: Dolby Digital Plus Codec ID: A_EAC3 Duration: 1 h 50 min Bit rate mode: Constant Bit rate: 384 kb/s Channel(s): 6 channels Channel layout: L R C LFE Ls Rs Sampling rate: 48.0 kHz Frame rate: 31.250 FPS (1536 SPF) Compression mode: Lossy Stream size: 304 MiB (5%) Title: DUB EAC3 (Veles) Language: Russian Service kind: Complete Main Default: No Forced: No Audio #3 ID: 4 Format: E-AC-3 Format/Info: Enhanced AC-3 Commercial name: Dolby Digital Plus Codec ID: A_EAC3 Duration: 1 h 50 min Bit rate mode: Constant Bit rate: 640 kb/s Channel(s): 6 channels Channel layout: L R C LFE Ls Rs Sampling rate: 48.0 kHz Frame rate: 31.250 FPS (1536 SPF) Compression mode: Lossy Stream size: 506 MiB (8%) Language: French Service kind: Complete Main Default: No Forced: No Text #1 ID: 5 Format: UTF-8 Codec ID: S_TEXT/UTF8 Codec ID/Info: UTF-8 Plain Text Duration: 1 h 48 min Bit rate: 41 b/s Count of elements: 848 Stream size: 33.1 KiB (0%) Title: SDH (unofficial) Language: Russian Default: No Forced: No Text #2 ID: 6 Format: UTF-8 Codec ID: S_TEXT/UTF8 Codec ID/Info: UTF-8 Plain Text Duration: 1 h 48 min Bit rate: 26 b/s Count of elements: 848 Stream size: 21.1 KiB (0%) Title: SDH Language: French Default: No Forced: No
[+] Скриншоты

Всего файлов в раздаче: 1 
Ostrov.izgoev.2023.WEB-DL.1080p.ELEKTRI4KA.mkv6.57 GB

Похожие раздачи по запросу - Остров
2024-06-04 magnet Остров изгоев / Soudain seuls (2023) WEB-DLRip 720p от DoMiNo & селезень | D 2.25 GB ↑ 0 ↓ 1
2024-06-03 magnet Остров изгоев / Soudain seuls (2023) WEB-DLRip-AVC | D 2.04 GB ↑ 8 ↓ 1
2024-06-01 magnet Остров изгоев / Soudain seuls (2023) WEB-DLRip от ELEKTRI4KA | D 1.46 GB ↑ 0 ↓ 2
2024-04-07 magnet Остров доктора Моро / The Island of Dr. Moreau (1996) BDRip-AVC от msltel | P, A | Режиссёрская версия 3.73 GB ↑ 0 ↓ 0
2024-01-06 magnet Остров иллюзий / Influencer (2022) BDRip 1080p от MegaPeer | D, P 7.41 GB ↑ 0 ↓ 0
2023-11-18 magnet Остров / The Island (2023) BDRip от MegaPeer | D 1.46 GB ↑ 0 ↓ 0
2023-07-26 magnet Обитель зла: Остров смерти / Biohazard: Death Island / Resident Evil: Death Island (2023) UHD BDRemux 2160p от селезень | 4K | HDR | P 38.20 GB ↑ 0 ↓ 0

Комментарии


Зарегистрируйтесь чтобы добавить комментарий
Торрент клиент
byTorrent - программа для загрузки торрент-файлов.

Скачать byTorrent.exe (1,5 МБ)

Скачать byTorrent.zip (0,6 МБ)

Поддержи torrent.by
российских рублей
(300 российских рублей это 4$)

Обратная связь rss

End game ©