↑↓torrent.by
Поиск
Логин:  Регистрация
Пароль:

Крепость / Fortress (1992) BDRip-HEVC 1080p от RIPS CLUB | D, P, A | DEU Transfer | Unrated

download Скачать торрент-файл   magnet Магнитная ссылка Размер: 9.37 GB Добавлен: 2024-06-02 05:00
Пиры будут получены из сети DHT
Последний сидер был замечен 2024-06-02 05:00
Название: Крепость Оригинальное название: Fortress Год производства: 1992 Производство: Австралия / Davis Entertainment, Fortress Films, Village Roadshow Pictures Жанр: фантастика, боевик, триллер, криминал Режиссёр: Стюарт Гордон В ролях: Кристофер Ламберт, Кертвуд Смит, Лорин Локлин, Клифтон Коллинз мл., Линкольн Килпэтрик, Джеффри Комбс, Том Таулз, Вернон Уэллс, Кэролин Пёрди-Гордон, Алан Зитнер О фильме: 2017 год. Жизнь на Земле стала тяжела и жестока. Природные ресурсы на исходе, а население чудовищно увеличилось. Результат всего этого — строгий режим и новый закон о том, что женщина может иметь только одного ребёнка. После смерти первенца, Бренник и его жена Карен нарушают закон и ждут рождения второго ребёнка. Их заключают в Крепость, самую изощрённую тюрьму с максимальной степенью защиты, из которой ещё никому не удавалось выбраться. Подвергнутый чудовищным пыткам, Бренник решает бежать любой ценой. Продолжительность: 01:35:31 Перевод: дублированный, многоголосый профессиональный, авторский Качество: BDRip-HEVC 1080p Кодек: HEVC (x265) Видео: 1920x1080, ~10.3 Mbps, HEVC (Main10@L.4.1@High) 10 бит Звук: Аудио1: AC3, 2 ch, 192 Kbps - Русский, DUB (Хлопушка) Аудио2: AC3, 2 ch, 640 Kbps - Русский, MVO (Нева 1 / ЕА / West) Аудио3: AC3, 2 ch, 192 Kbps - Русский, MVO (Амальгама) Аудио4: AC3, 2 ch, 448 Kbps - Русский, AVO (Андрей Гаврилов) Аудио5: AC3, 2 ch, 448 Kbps - Русский, AVO (Юрий Сербин) Аудио6: AC3, 2 ch, 192 Kbps - Русский, AVO (Леонид Володарский) Аудио7: AC3, 2 ch, 192 Kbps - Русский, AVO (Василий Горчаков) Аудио8: AC3, 2 ch, 192 Kbps - Русский, AVO (Неизвестный переводчик студии "Видеоман") Аудио9: AC3, 6 ch, 640 Kbps - Английский (Original 5.1) Аудио10: AC3, 2 ch, 640 Kbps - Английский (Original 2.0) Субтитры: русские, английские (SDH) Навигация по главам: Есть
[+] Лог (x265 info) + Mediainfo x265 : frame I: 587, Avg QP:18.52 kb/s: 22927.99 x265 : frame P: 25761, Avg QP:19.62 kb/s: 19179.73 x265 : frame B: 111062, Avg QP:21.78 kb/s: 8116.48 x265 : Weighted P-Frames: Y:9.4% UV:8.0% x265 : Weighted B-Frames: Y:6.9% UV:5.4% x265 : encoded 137410 frames in 120985.70s (1.14 fps), 10253.84 kb/s, Avg QP:21.36 Общее Уникальный идентификатор : 31840670717077973013932839306102125853 (0x17F44A45320BCF047FB151796BF1351D) Полное имя : .Крепость.Fortress.1992.DEU.Transfer.Unrated.BDRip-HEVC.1080p.mkv Формат : Matroska Версия формата : Version 4 Размер файла : 9,37 Гбайт Продолжительность : 1 ч. 35 мин. Общий битрейт : 14,0 Мбит/сек Частота кадров : 23,976 кадра/сек Название фильма : Крепость / Крепость Кодирование выполнил : OldGamer Тип содержимого : Movie Описание : «2013 год. Тюрьма будущего. Сверхтехнологический ад» Дата выпуска : 1992-12-18 Дата записи : 1992-12-18 Программа кодирования : mkvmerge v83.0 ('Circle Of Friends') 64-bit Библиотека кодирования : libebml v1.4.5 + libmatroska v1.7.1 / xvid4psp5 Обложка : Yes Attachments : cover.jpg ACTOR : Christophe Lambert, Kurtwood Smith, Loryn Locklin, Clifton Collins Jr., Jeffrey Combs, Lincoln Kilpatrick, Tom Towles, Vernon Wells, Carolyn Purdy-Gordon, Alan Zitner, Deni Gordon, Eric Briant Wells, Dragicia Debert, Harry Nurmi, Peter Lamb, Troy Hunter ARTIST : Christophe Lambert, Kurtwood Smith, Loryn Locklin, Clifton Collins Jr., Jeffrey Combs, Lincoln Kilpatrick, Tom Towles, Vernon Wells, Carolyn Purdy-Gordon, Alan Zitner, Deni Gordon, Eric Briant Wells, Dragicia Debert, Harry Nurmi, Peter Lamb, Troy Hunter DIRECTOR : Stuart Gordon GENRE : боевик, триллер, фантастика LAW_RATING : R PRODUCER : John Davis, John Flock PRODUCTION_STUDIO : Dimension Films RATING : R SCREENPLAY_BY : Steven Feinberg, David Venable, Terry Curtis Fox, Troy Neighbors SUMMARY : «2013 год. Тюрьма будущего. Сверхтехнологический ад» SYNOPSIS : 2017 год. Жизнь на Земле стала тяжела и жестока. Природные ресурсы на исходе, а население чудовищно увеличилось. Результат всего этого — строгий режим и новый закон о том, что женщина может иметь только одного ребёнка. После смерти первенца, Бренник и его жена Карен нарушают закон и ждут рождения второго ребёнка. Их заключают в Крепость, самую изощрённую тюрьму с максимальной степенью защиты, из которой ещё никому не удавалось выбраться. Подвергнутый чудовищным пыткам, Бренник решает бежать любой ценой. WRITTEN_BY : Steven Feinberg, David Venable, Terry Curtis Fox, Troy Neighbors Видео Идентификатор : 1 Формат : HEVC Формат/Информация : High Efficiency Video Coding Профиль формата : Main 10@L4.1@High Идентификатор кодека : V_MPEGH/ISO/HEVC Продолжительность : 1 ч. 35 мин. Битрейт : 10,3 Мбит/сек Ширина : 1 920 пикселей Высота : 1 080 пикселей Соотношение сторон дисплея : 16:9 Режим частоты кадров : Постоянный Частота кадров : 23,976 (24000/1001) кадра/сек Цветовое пространство : YUV Цветовая субдискретизация : 4:2:0 Битовая глубина : 10 бит Бит/(Пиксели*Кадры) : 0.206 Размер потока : 6,84 Гбайт (73%) Заголовок : Fortress / Rip by OldGamer Библиотека кодирования : x265 3.5+110-8ee01d45b: 10bit Параметры библиотеки кодирования : cpuid=1111039 / frame-threads=4 / numa-pools=16 / wpp / no-pmode / no-pme / no-psnr / no-ssim / log-level=2 / input-csp=1 / input-res=1920x1080 / interlace=0 / total-frames=137410 / level-idc=41 / high-tier=1 / uhd-bd=0 / ref=5 / no-allow-non-conformance / no-repeat-headers / annexb / no-aud / no-eob / no-eos / no-hrd / info / hash=0 / temporal-layers=0 / open-gop / min-keyint=23 / keyint=240 / gop-lookahead=0 / bframes=16 / b-adapt=2 / b-pyramid / bframe-bias=0 / rc-lookahead=40 / lookahead-slices=0 / scenecut=40 / no-hist-scenecut / radl=0 / no-splice / no-intra-refresh / ctu=32 / min-cu-size=8 / rect / amp / max-tu-size=32 / tu-inter-depth=4 / tu-intra-depth=4 / limit-tu=1 / rdoq-level=2 / dynamic-rd=0.00 / no-ssim-rd / signhide / no-tskip / nr-intra=0 / nr-inter=0 / no-constrained-intra / no-strong-intra-smoothing / max-merge=5 / limit-refs=3 / no-limit-modes / me=3 / subme=7 / merange=57 / temporal-mvp / no-frame-dup / no-hme / weightp / weightb / no-analyze-src-pics / deblock=-2:-2 / no-sao / no-sao-non-deblock / rd=6 / selective-sao=0 / no-early-skip / no-rskip / no-fast-intra / no-tskip-fast / no-cu-lossless / b-intra / no-splitrd-skip / rdpenalty=0 / psy-rd=2.00 / psy-rdoq=1.00 / no-rd-refine / no-lossless / cbqpoffs=0 / crqpoffs=0 / rc=crf / crf=20.4 / qcomp=0.60 / qpstep=4 / stats-write=0 / stats-read=0 / vbv-maxrate=50000 / vbv-bufsize=50000 / vbv-init=0.9 / min-vbv-fullness=50.0 / max-vbv-fullness=80.0 / crf-max=0.0 / crf-min=0.0 / ipratio=1.40 / pbratio=1.30 / aq-mode=1 / aq-strength=1.00 / no-cutree / zone-count=1 / zones: / start-frame=130693 / end-frame=137410 / qp=36 / no-strict-cbr / qg-size=32 / no-rc-grain / qpmax=69 / qpmin=0 / no-const-vbv / sar=1 / overscan=0 / videoformat=5 / range=0 / colorprim=2 / transfer=2 / colormatrix=2 / chromaloc=0 / display-window=0 / cll=0,0 / min-luma=0 / max-luma=1023 / log2-max-poc-lsb=8 / vui-timing-info / vui-hrd-info / slices=1 / no-opt-qp-pps / no-opt-ref-list-length-pps / no-multi-pass-opt-rps / scenecut-bias=0.00 / no-opt-cu-delta-qp / no-aq-motion / no-hdr10 / no-hdr10-opt / no-dhdr10-opt / no-idr-recovery-sei / analysis-reuse-level=0 / analysis-save-reuse-level=0 / analysis-load-reuse-level=0 / scale-factor=0 / refine-intra=0 / refine-inter=0 / refine-mv=1 / refine-ctu-distortion=0 / no-limit-sao / ctu-info=0 / no-lowpass-dct / refine-analysis-type=0 / copy-pic=1 / max-ausize-factor=1.0 / no-dynamic-refine / no-single-sei / no-hevc-aq / no-svt / no-field / qp-adaptation-range=1.00 / scenecut-aware-qp=0conformance-window-offsets / right=0 / bottom=0 / decoder-max-rate=0 / no-vbv-live-multi-pass / no-mcstf / no-sbrc Язык : Английский По умолчанию : Да Принудительно : Нет Аудио #1 Идентификатор : 2 Формат : AC-3 Формат/Информация : Audio Coding 3 Коммерческое название : Dolby Digital Идентификатор кодека : A_AC3 Продолжительность : 1 ч. 35 мин. Вид битрейта : Постоянный Битрейт : 192 Кбит/сек Канал(-ы) : 2 канала Расположение каналов : L R Частота дискретизации : 48,0 КГц Частота кадров : 31,250 кадров/сек (1536 SPF) Метод сжатия : С потерями Размер потока : 131 Мбайт (1%) Заголовок : DUB (Хлопушка) Язык : Русский Вид сервиса : Complete Main По умолчанию : Да Принудительно : Нет Нормализация звука речи : -31 dB compr : -0.28 dB dsurmod : Not Dolby Surround encoded ltrtcmixlev : 3.0 dB ltrtsurmixlev : 3.0 dB lorocmixlev : 3.0 dB lorosurmixlev : 3.0 dB dialnorm_Average : -31 dB dialnorm_Minimum : -31 dB dialnorm_Maximum : -31 dB Аудио #2 Идентификатор : 3 Формат : AC-3 Формат/Информация : Audio Coding 3 Коммерческое название : Dolby Digital Идентификатор кодека : A_AC3 Продолжительность : 1 ч. 35 мин. Вид битрейта : Постоянный Битрейт : 640 Кбит/сек Канал(-ы) : 2 канала Расположение каналов : L R Частота дискретизации : 48,0 КГц Частота кадров : 31,250 кадров/сек (1536 SPF) Метод сжатия : С потерями Размер потока : 437 Мбайт (5%) Заголовок : MVO (Нева 1 / ЕА / West) Язык : Русский Вид сервиса : Complete Main По умолчанию : Нет Принудительно : Нет Нормализация звука речи : -27 dB compr : -0.28 dB dynrng : 6.02 dB dsurmod : Not Dolby Surround encoded mixlevel : 285 dB roomtyp : Small dialnorm_Average : -27 dB dialnorm_Minimum : -27 dB dialnorm_Maximum : -27 dB Аудио #3 Идентификатор : 4 Формат : AC-3 Формат/Информация : Audio Coding 3 Коммерческое название : Dolby Digital Идентификатор кодека : A_AC3 Продолжительность : 1 ч. 35 мин. Вид битрейта : Постоянный Битрейт : 192 Кбит/сек Канал(-ы) : 2 канала Расположение каналов : L R Частота дискретизации : 48,0 КГц Частота кадров : 31,250 кадров/сек (1536 SPF) Метод сжатия : С потерями Размер потока : 131 Мбайт (1%) Заголовок : MVO (Амальгама) Язык : Русский Вид сервиса : Complete Main По умолчанию : Нет Принудительно : Нет Нормализация звука речи : -31 dB compr : -0.28 dB dsurmod : Not Dolby Surround encoded ltrtcmixlev : 3.0 dB ltrtsurmixlev : 3.0 dB lorocmixlev : 3.0 dB lorosurmixlev : 3.0 dB dialnorm_Average : -31 dB dialnorm_Minimum : -31 dB dialnorm_Maximum : -31 dB Аудио #4 Идентификатор : 5 Формат : AC-3 Формат/Информация : Audio Coding 3 Коммерческое название : Dolby Digital Идентификатор кодека : A_AC3 Продолжительность : 1 ч. 35 мин. Вид битрейта : Постоянный Битрейт : 448 Кбит/сек Канал(-ы) : 2 канала Расположение каналов : L R Частота дискретизации : 48,0 КГц Частота кадров : 31,250 кадров/сек (1536 SPF) Метод сжатия : С потерями Размер потока : 306 Мбайт (3%) Заголовок : AVO (Андрей Гаврилов) Язык : Русский Вид сервиса : Complete Main По умолчанию : Нет Принудительно : Нет Нормализация звука речи : -27 dB compr : -0.28 dB dsurmod : Not Dolby Surround encoded mixlevel : 285 dB roomtyp : Small dialnorm_Average : -27 dB dialnorm_Minimum : -27 dB dialnorm_Maximum : -27 dB Аудио #5 Идентификатор : 6 Формат : AC-3 Формат/Информация : Audio Coding 3 Коммерческое название : Dolby Digital Идентификатор кодека : A_AC3 Продолжительность : 1 ч. 35 мин. Вид битрейта : Постоянный Битрейт : 448 Кбит/сек Канал(-ы) : 2 канала Расположение каналов : L R Частота дискретизации : 48,0 КГц Частота кадров : 31,250 кадров/сек (1536 SPF) Метод сжатия : С потерями Размер потока : 306 Мбайт (3%) Заголовок : AVO (Юрий Сербин) Язык : Русский Вид сервиса : Complete Main По умолчанию : Нет Принудительно : Нет Нормализация звука речи : -27 dB compr : -0.28 dB dynrng : -8.70 dB dsurmod : Not Dolby Surround encoded mixlevel : 285 dB roomtyp : Small dialnorm_Average : -27 dB dialnorm_Minimum : -27 dB dialnorm_Maximum : -27 dB Аудио #6 Идентификатор : 7 Формат : AC-3 Формат/Информация : Audio Coding 3 Коммерческое название : Dolby Digital Идентификатор кодека : A_AC3 Продолжительность : 1 ч. 35 мин. Вид битрейта : Постоянный Битрейт : 192 Кбит/сек Канал(-ы) : 2 канала Расположение каналов : L R Частота дискретизации : 48,0 КГц Частота кадров : 31,250 кадров/сек (1536 SPF) Метод сжатия : С потерями Размер потока : 131 Мбайт (1%) Заголовок : AVO (Леонид Володарский) Язык : Русский Вид сервиса : Complete Main По умолчанию : Нет Принудительно : Нет Нормализация звука речи : -31 dB compr : -0.28 dB dsurmod : Not Dolby Surround encoded ltrtcmixlev : 3.0 dB ltrtsurmixlev : 3.0 dB lorocmixlev : 3.0 dB lorosurmixlev : 3.0 dB dialnorm_Average : -31 dB dialnorm_Minimum : -31 dB dialnorm_Maximum : -31 dB Аудио #7 Идентификатор : 8 Формат : AC-3 Формат/Информация : Audio Coding 3 Коммерческое название : Dolby Digital Идентификатор кодека : A_AC3 Продолжительность : 1 ч. 35 мин. Вид битрейта : Постоянный Битрейт : 192 Кбит/сек Канал(-ы) : 2 канала Расположение каналов : L R Частота дискретизации : 48,0 КГц Частота кадров : 31,250 кадров/сек (1536 SPF) Метод сжатия : С потерями Размер потока : 131 Мбайт (1%) Заголовок : AVO (Василий Горчаков) Язык : Русский Вид сервиса : Complete Main По умолчанию : Нет Принудительно : Нет Нормализация звука речи : -31 dB compr : -0.28 dB dsurmod : Not Dolby Surround encoded ltrtcmixlev : 3.0 dB ltrtsurmixlev : 3.0 dB lorocmixlev : 3.0 dB lorosurmixlev : 3.0 dB dialnorm_Average : -31 dB dialnorm_Minimum : -31 dB dialnorm_Maximum : -31 dB Аудио #8 Идентификатор : 9 Формат : AC-3 Формат/Информация : Audio Coding 3 Коммерческое название : Dolby Digital Идентификатор кодека : A_AC3 Продолжительность : 1 ч. 35 мин. Вид битрейта : Постоянный Битрейт : 192 Кбит/сек Канал(-ы) : 2 канала Расположение каналов : L R Частота дискретизации : 48,0 КГц Частота кадров : 31,250 кадров/сек (1536 SPF) Метод сжатия : С потерями Размер потока : 131 Мбайт (1%) Заголовок : AVO (Неизвестный переводчик студии "Видеоман") Язык : Русский Вид сервиса : Complete Main По умолчанию : Нет Принудительно : Нет Нормализация звука речи : -31 dB compr : -0.28 dB dsurmod : Not Dolby Surround encoded ltrtcmixlev : 3.0 dB ltrtsurmixlev : 3.0 dB lorocmixlev : 3.0 dB lorosurmixlev : 3.0 dB dialnorm_Average : -31 dB dialnorm_Minimum : -31 dB dialnorm_Maximum : -31 dB Аудио #9 Идентификатор : 10 Формат : AC-3 Формат/Информация : Audio Coding 3 Коммерческое название : Dolby Digital Идентификатор кодека : A_AC3 Продолжительность : 1 ч. 35 мин. Вид битрейта : Постоянный Битрейт : 640 Кбит/сек Канал(-ы) : 6 каналов Расположение каналов : L R C LFE Ls Rs Частота дискретизации : 48,0 КГц Частота кадров : 31,250 кадров/сек (1536 SPF) Метод сжатия : С потерями Размер потока : 437 Мбайт (5%) Заголовок : Original 5.1 Язык : Английский Вид сервиса : Complete Main По умолчанию : Нет Принудительно : Нет Нормализация звука речи : -27 dB compr : -0.28 dB cmixlev : -3.0 dB surmixlev : -3 dB mixlevel : 285 dB roomtyp : Small dialnorm_Average : -27 dB dialnorm_Minimum : -27 dB dialnorm_Maximum : -27 dB Аудио #10 Идентификатор : 11 Формат : AC-3 Формат/Информация : Audio Coding 3 Коммерческое название : Dolby Digital Идентификатор кодека : A_AC3 Продолжительность : 1 ч. 35 мин. Вид битрейта : Постоянный Битрейт : 640 Кбит/сек Канал(-ы) : 2 канала Расположение каналов : L R Частота дискретизации : 48,0 КГц Частота кадров : 31,250 кадров/сек (1536 SPF) Метод сжатия : С потерями Размер потока : 437 Мбайт (5%) Заголовок : Original 2.0 Язык : Английский Вид сервиса : Complete Main По умолчанию : Нет Принудительно : Нет Нормализация звука речи : -27 dB compr : -0.28 dB dynrng : -8.70 dB dsurmod : Not Dolby Surround encoded mixlevel : 285 dB roomtyp : Small dialnorm_Average : -27 dB dialnorm_Minimum : -27 dB dialnorm_Maximum : -27 dB Текст #1 Идентификатор : 12 Формат : UTF-8 Идентификатор кодека : S_TEXT/UTF8 Идентификатор кодека/Информация : UTF-8 Plain Text Продолжительность : 1 ч. 28 мин. Битрейт : 60 бит/сек Частота кадров : 0,112 кадр/сек Число элементов : 594 Размер потока : 39,4 КиБ (0%) Заголовок : Russian Язык : Русский По умолчанию : Нет Принудительно : Нет Текст #2 Идентификатор : 13 Формат : UTF-8 Идентификатор кодека : S_TEXT/UTF8 Идентификатор кодека/Информация : UTF-8 Plain Text Продолжительность : 1 ч. 27 мин. Битрейт : 40 бит/сек Частота кадров : 0,158 кадр/сек Число элементов : 830 Размер потока : 25,9 КиБ (0%) Заголовок : English Full Язык : Английский По умолчанию : Нет Принудительно : Нет Текст #3 Идентификатор : 14 Формат : UTF-8 Идентификатор кодека : S_TEXT/UTF8 Идентификатор кодека/Информация : UTF-8 Plain Text Продолжительность : 1 ч. 29 мин. Битрейт : 44 бит/сек Частота кадров : 0,179 кадр/сек Число элементов : 957 Размер потока : 29,1 КиБ (0%) Заголовок : English SDH Язык : Английский По умолчанию : Нет Принудительно : Нет Меню 00:00:00.000 : en:Main Titles 00:02:06.158 : en:Inspection Station 00:04:51.157 : en:Running for Freedom 00:06:26.960 : en:"31 Years" 00:08:31.169 : en:Men-Tal Corporation 00:10:37.337 : en:Intestinator Tagging 00:12:47.758 : en:Overcrowding 00:15:34.050 : en:Cell Mates 00:18:02.031 : en:Dreaming 00:20:22.024 : en:Unwanted Advances 00:21:57.891 : en:Solitary Confinement 00:23:39.702 : en:The Prison Director 00:26:07.515 : en:The Women's Section 00:29:03.692 : en:Prison Brawl 00:33:26.371 : en:A Demonstration 00:36:12.996 : en:The Procedure 00:40:28.751 : en:Compromise 00:44:40.252 : en:Enhanced Human 00:47:20.254 : en:Intoxicating 00:50:22.011 : en:Dream Visit 00:52:22.922 : en:Awakening 00:54:09.780 : en:Prison an Escapie 00:56:16.865 : en:Covert Operation 00:59:17.170 : en:"Do it for My Baby" 01:00:08.013 : en:Prison Hologram 01:02:33.741 : en:A Proposition 01:04:24.269 : en:Intestinator Removal 01:08:22.715 : en:Plan Into Action 01:11:21.353 : en:Wrong Way 01:14:13.023 : en:The Perfect Soldier 01:17:38.187 : en:Barganing Power 01:21:01.055 : en:Virus Installation 01:23:53.103 : en:System Breakdown 01:26:07.487 : en:Crossing the Border 01:26:55.702 : en:Delivery 01:30:51.019 : en:End Credits
[+] Скриншоты
Релиз от: OldGamer

Всего файлов в раздаче: 1 
Крепость.Fortress.1992.DEU.Transfer.Unrated.BDRip-HEVC.1080p.mkv9.37 GB

Кто качает (только для создателя раздачи и модераторов): Локальные пиры отсутствуют

Комментарии


Зарегистрируйтесь чтобы добавить комментарий
Торрент клиент
byTorrent - программа для загрузки торрент-файлов.

Скачать byTorrent.exe (1,5 МБ)

Скачать byTorrent.zip (0,6 МБ)

Поддержи torrent.by
российских рублей
(300 российских рублей это 4$)

Обратная связь rss

End game ©