↑↓torrent.by
Поиск
Логин:  Регистрация
Пароль:

Вдали / Away [S01] (2020) WEB-DL 1080p | Невафильм

download Скачать торрент-файл   magnet Магнитная ссылка Размер: 15.72 GB Раздают: 0 Качают: 1 Добавлен: 2024-06-02 05:00
Пиры будут получены из сети DHT
Последний сидер был замечен 2024-06-02 13:28
Вдали / Away Страна: США Год выпуска: 2020 Жанр: фантастика, драма, мелодрама Продолжительность: ~00:55:00 серия Перевод: Профессиональный (дублированный) | Невафильм Режиссёр: Эдвард Цвик, Джеффри Рейнер, Бронуэн Хьюз, Дэвид Бойд, Шарлотта Брандстром, Джет Уилкинсон В ролях: Хилари Суэнк, Джош Чарльз, Вивиан У, Марк Иванир, Ато Эссандо, Рэй Пантаки, Талита Бейтман Описание: В центре повествования — Эмма Грин, американская женщина-астронавт, которая принимает тяжёлое решение оставить своего мужа и дочь, чтобы возглавить международную команду для трёхлетней миссии полёта на Марс. Качество: WEB-DL 1080p Формат: MKV Видео: AVC, 1920x1080 (16:9), 23.976 fps, ~2800-5200 kbps Аудио №1: E-AC3, 6 ch, 48 kHz, 640 kbps (В 4, 8 и 9-й серии: 448 kbps) Аудио №2: E-AC3 JOC, 6 ch, 48 kHz, 768 kbps Субтитры: Русские (Forced, Full), английские (Forced, SDH), немецкие, испанские, французские, итальянские, португальские Реклама: Отсутствует
[+] Список серий01. Вперёд — Go 02. Возвращение невозможно — Negative Return 03. Полнеба — Half the Sky 04. Чудесные колесницы — Excellent Chariots 05. Космические псы — Space Dogs 06. Немного веры — A Little Faith 07. Доброй ночи, Марс — Goodnight Mars 08. Признаки жизни — Vital Signs 09. Спектр — Spektr 10. Дом — Home
[+] MediaInfoGeneral Unique ID : 96373334401871078088069176812155441877 (0x4880D43D0BFD7E4CF67F5314C15812D5) Complete name : Away.S01.1080p.NF.WEB-DL.DDP5.1.x264-EniaHDAway.S01E01.1080p.NF.WEB-DL.DDP5.1.x264-EniaHD.mkv Format : Matroska Format version : Version 4 File size : 1.70 GiB Duration : 57 min 54 s Overall bit rate mode : Variable Overall bit rate : 4 196 kb/s Movie name : Away S01E01 - EniaHD Encoded date : UTC 2020-09-04 08:16:49 Writing application : mkvmerge v49.0.0 ('Sick Of Losing Soulmates') 64-bit Writing library : libebml v1.4.0 + libmatroska v1.6.1 Video ID : 1 Format : AVC Format/Info : Advanced Video Codec Format profile : Main@L4 Format settings : CABAC / 3 Ref Frames Format settings, CABAC : Yes Format settings, Reference fra : 3 frames Codec ID : V_MPEG4/ISO/AVC Duration : 57 min 53 s Bit rate mode : Variable Bit rate : 2 870 kb/s Maximum bit rate : 4 305 kb/s Width : 1 920 pixels Height : 1 080 pixels Display aspect ratio : 16:9 Frame rate mode : Constant Frame rate : 23.976 (24000/1001) FPS Color space : YUV Chroma subsampling : 4:2:0 Bit depth : 8 bits Scan type : Progressive Bits/(Pixel*Frame) : 0.058 Stream size : 1.13 GiB (66%) Writing library : x264 core 148 r2722 1b0121b Encoding settings : cabac=1 / ref=3 / deblock=1:0:0 / analyse=0x1:0x111 / me=umh / subme=10 / psy=1 / psy_rd=1.00:0.00 / mixed_ref=1 / me_range=24 / chroma_me=1 / trellis=2 / 8x8dct=0 / cqm=0 / deadzone=21,11 / fast_pskip=1 / chroma_qp_offset=-2 / threads=6 / lookahead_threads=1 / sliced_threads=0 / nr=0 / decimate=1 / interlaced=0 / bluray_compat=0 / stitchable=1 / constrained_intra=0 / bframes=2 / b_pyramid=0 / b_adapt=2 / b_bias=0 / direct=3 / weightb=1 / open_gop=0 / weightp=2 / keyint=250 / keyint_min=23 / scenecut=0 / intra_refresh=0 / rc_lookahead=48 / rc=2pass / mbtree=1 / bitrate=2870 / ratetol=1.0 / qcomp=0.50 / qpmin=6 / qpmax=51 / qpstep=4 / cplxblur=20.0 / qblur=0.5 / vbv_maxrate=4305 / vbv_bufsize=5740 / nal_hrd=vbr / filler=0 / ip_ratio=1.40 / aq=1:1.00 Default : Yes Forced : No Audio #1 ID : 2 Format : E-AC-3 Format/Info : Enhanced AC-3 Commercial name : Dolby Digital Plus Codec ID : A_EAC3 Duration : 57 min 54 s Bit rate mode : Constant Bit rate : 640 kb/s Channel(s) : 6 channels Channel layout : L R C LFE Ls Rs Sampling rate : 48.0 kHz Frame rate : 31.250 FPS (1536 SPF) Compression mode : Lossy Stream size : 265 MiB (15%) Language : Russian Service kind : Complete Main Default : Yes Forced : No Audio #2 ID : 3 Format : E-AC-3 JOC Format/Info : Enhanced AC-3 with Joint Object Coding Commercial name : Dolby Digital Plus with Dolby Atmos Codec ID : A_EAC3 Duration : 57 min 54 s Bit rate mode : Constant Bit rate : 768 kb/s Channel(s) : 6 channels Channel layout : L R C LFE Ls Rs Sampling rate : 48.0 kHz Frame rate : 31.250 FPS (1536 SPF) Compression mode : Lossy Stream size : 318 MiB (18%) Language : English Service kind : Complete Main Default : No Forced : No Complexity index : 16 Number of dynamic objects : 15 Bed channel count : 1 channel Bed channel configuration : LFE Text #1 ID : 4 Format : UTF-8 Codec ID : S_TEXT/UTF8 Codec ID/Info : UTF-8 Plain Text Duration : 56 min 24 s Bit rate : 1 b/s Count of elements : 16 Stream size : 662 Bytes (0%) Title : Forced Language : Russian Default : Yes Forced : No Text #2 ID : 5 Format : UTF-8 Codec ID : S_TEXT/UTF8 Codec ID/Info : UTF-8 Plain Text Duration : 56 min 24 s Bit rate : 95 b/s Count of elements : 888 Stream size : 39.5 KiB (0%) Language : Russian Default : No Forced : No Text #3 ID : 6 Format : UTF-8 Codec ID : S_TEXT/UTF8 Codec ID/Info : UTF-8 Plain Text Duration : 9 s 593 ms Bit rate : 144 b/s Count of elements : 4 Stream size : 173 Bytes (0%) Title : Forced Language : English Default : No Forced : No Text #4 ID : 7 Format : UTF-8 Codec ID : S_TEXT/UTF8 Codec ID/Info : UTF-8 Plain Text Duration : 55 min 2 s Bit rate : 81 b/s Count of elements : 945 Stream size : 32.8 KiB (0%) Title : SDH Language : English Default : No Forced : No Text #5 ID : 8 Format : UTF-8 Codec ID : S_TEXT/UTF8 Codec ID/Info : UTF-8 Plain Text Duration : 56 min 24 s Bit rate : 63 b/s Count of elements : 757 Stream size : 26.4 KiB (0%) Language : German Default : No Forced : No Text #6 ID : 9 Format : UTF-8 Codec ID : S_TEXT/UTF8 Codec ID/Info : UTF-8 Plain Text Duration : 56 min 24 s Bit rate : 61 b/s Count of elements : 776 Stream size : 25.4 KiB (0%) Language : Spanish Default : No Forced : No Text #7 ID : 10 Format : UTF-8 Codec ID : S_TEXT/UTF8 Codec ID/Info : UTF-8 Plain Text Duration : 56 min 24 s Bit rate : 63 b/s Count of elements : 769 Stream size : 26.2 KiB (0%) Language : French Default : No Forced : No Text #8 ID : 11 Format : UTF-8 Codec ID : S_TEXT/UTF8 Codec ID/Info : UTF-8 Plain Text Duration : 56 min 24 s Bit rate : 60 b/s Count of elements : 760 Stream size : 24.8 KiB (0%) Language : Italian Default : No Forced : No Text #9 ID : 12 Format : UTF-8 Codec ID : S_TEXT/UTF8 Codec ID/Info : UTF-8 Plain Text Duration : 55 min 3 s Bit rate : 64 b/s Count of elements : 793 Stream size : 26.0 KiB (0%) Title : Brazilian Language : Portuguese Default : No Forced : No
[+] Скриншоты

Всего файлов в раздаче: 10 
Away.S01E01.1080p.NF.WEB-DL.DDP5.1.x264-EniaHD.mkv1.70 GB
Away.S01E02.1080p.NF.WEB-DL.DDP5.1.x264-EniaHD.mkv1.31 GB
Away.S01E03.1080p.NF.WEB-DL.DDP5.1.x264-EniaHD.mkv1.33 GB
Away.S01E04.1080p.NF.WEB-DL.DDP5.1.x264-EniaHD.mkv1.31 GB
Away.S01E05.1080p.NF.WEB-DL.DDP5.1.x264-EniaHD.mkv2.60 GB
Away.S01E06.1080p.NF.WEB-DL.DDP5.1.x264-EniaHD.mkv1.51 GB
Away.S01E07.1080p.NF.WEB-DL.DDP5.1.x264-EniaHD.mkv1.51 GB
Away.S01E08.1080p.NF.WEB-DL.DDP5.1.x264-EniaHD.mkv1.41 GB
Away.S01E09.1080p.NF.WEB-DL.DDP5.1.x264-EniaHD.mkv1.36 GB
Away.S01E10.1080p.NF.WEB-DL.DDP5.1.x264-EniaHD.mkv1.66 GB

Похожие раздачи по запросу - Вдали
2024-05-14 magnet Человек-паук: Вдали от дома / Spider-Man: Far from Home (2019) HybridRip 1080p | D, P | Open Matte 5.05 GB ↑ 0 ↓ 0

Комментарии


Зарегистрируйтесь чтобы добавить комментарий
Торрент клиент
byTorrent - программа для загрузки торрент-файлов.

Скачать byTorrent.exe (1,5 МБ)

Скачать byTorrent.zip (0,6 МБ)

Поддержи torrent.by
российских рублей
(300 российских рублей это 4$)

Обратная связь rss

End game ©