↑↓torrent.by
Поиск
Логин:  Регистрация
Пароль:

Бекки в ярости / The Wrath of Becky (2023) BDRip 720p от DoMiNo & селезень | D | Lucky Production

download Скачать торрент-файл   magnet Магнитная ссылка Размер: 2.79 GB Добавлен: 2024-06-02 05:00
Пиры будут получены из сети DHT
Последний сидер был замечен 2024-06-02 05:00
Информация о фильме Название: Бекки в ярости Оригинальное название: The Wrath of Becky Год выхода: 2023 Жанр: Боевик, триллер Режиссер: Мэтт Энджел, Сьюзен Кут В ролях: Лулу Уилсон, Шонн Уильям Скотт, Дениз Бюрс, Джилл Ларсон, Майкл Сироу, Аарон Далла Вилла, Мэтт Энджел, Кортни Гейнс О фильме: Через два года после тех ужасных событий Бекки под опекой доброй пожилой женщины пытается наладить жизнь, но в их дом вламываются злоумышленники и похищают любимую собачку. Теперь Бекки придётся снова применить к негодяям старые добрые методы защиты дорогих ей людей. Страна: США Студия: BoulderLight Pictures, Fluffy Bear Studios, Media Finance Capital Продолжительность: 01:24:10 Перевод: Дублированный | Lucky Production Субтитры: Русские (Forced, Full), Английские (Full, SDH) Файл Формат: Matroska Качество: BDRip 720p | Исх.The Wrath of Becky 2023 1080p Blu-ray Remux AVC DTS-HD MA 7.1-HDT Видео: 1280x534 at 24.000 fps, MPEG-4 AVC, ~3209 kbps Аудио 1: AC3, 6 ch, ~448 kbps - | Русский | | Дублированный Аудио 2: E-AC3, 6 ch, ~448 kbps - | Русский | | Дублированный Аудио 3: AC3, 6 ch, ~640 kbps - | Английский | | Original Формат субтитров: softsub (SRT)
[+] M/IGeneral Unique ID : 182382451648691191704330131928152644844 (0x8935951E76D755062F43C37A51ED9CEC) Complete name : S:The.Wrath.of.Becky.2023.DUB.BDRip.720p.x264.seleZen.mkv Format : Matroska Format version : Version 4 File size : 2.79 GiB Duration : 1 h 24 min Overall bit rate : 4 748 kb/s Frame rate : 24.000 FPS Movie name : The.Wrath.of.Becky.2023.DUB.BDRip.720p.x264.seleZen Encoded date : 2024-06-01 13:52:47 UTC Writing application : mkvmerge v84.0 ('Sleeper') 64-bit Writing library : libebml v1.4.5 + libmatroska v1.7.1 Cover : Yes Attachments : cover.jpg / small_cover.jpg Video ID : 1 Format : AVC Format/Info : Advanced Video Codec Format profile : High@L4.1 Format settings : CABAC / 12 Ref Frames Format settings, CABAC : Yes Format settings, Reference : 12 frames Codec ID : V_MPEG4/ISO/AVC Duration : 1 h 24 min Bit rate : 3 209 kb/s Width : 1 280 pixels Height : 534 pixels Display aspect ratio : 2.40:1 Frame rate mode : Constant Frame rate : 24.000 FPS Color space : YUV Chroma subsampling : 4:2:0 Bit depth : 8 bits Scan type : Progressive Bits/(Pixel*Frame) : 0.196 Stream size : 1.89 GiB (68%) Title : -=DoMiNo=- Writing library : x264 core 164 r3191 -DoMiNo Encoding settings : cabac=1 / ref=12 / deblock=1:-3:-2 / analyse=0x3:0x133 / me=umh / subme=10 / psy=1 / psy_rd=1.05:0.05 / mixed_ref=1 / me_range=32 / chroma_me=1 / trellis=2 / 8x8dct=1 / cqm=0 / deadzone=21,11 / fast_pskip=0 / chroma_qp_offset=-3 / threads=17 / lookahead_threads=4 / sliced_threads=0 / nr=0 / decimate=1 / interlaced=0 / bluray_compat=0 / constrained_intra=0 / bframes=10 / b_pyramid=2 / b_adapt=2 / b_bias=0 / direct=3 / weightb=1 / open_gop=0 / weightp=2 / keyint=240 / keyint_min=24 / scenecut=40 / intra_refresh=0 / rc_lookahead=60 / rc=crf / mbtree=0 / crf=16.0 / qcomp=0.60 / qpmin=0 / qpmax=69 / qpstep=4 / vbv_maxrate=50000 / vbv_bufsize=62500 / crf_max=0.0 / nal_hrd=none / filler=0 / ip_ratio=1.40 / pb_ratio=1.30 / aq=3:0.80 Language : English Default : Yes Forced : No Audio #1 ID : 2 Format : AC-3 Format/Info : Audio Coding 3 Commercial name : Dolby Digital Codec ID : A_AC3 Duration : 1 h 24 min Bit rate mode : Constant Bit rate : 448 kb/s Channel(s) : 6 channels Channel layout : L R C LFE Ls Rs Sampling rate : 48.0 kHz Frame rate : 31.250 FPS (1536 SPF) Compression mode : Lossy Stream size : 270 MiB (9%) Title : DUB -Lucky Production Language : Russian Service kind : Complete Main Default : Yes Forced : No Dialog Normalization : -26 dB compr : -0.28 dB cmixlev : -3.0 dB surmixlev : -3 dB dmixmod : Lo/Ro ltrtcmixlev : -3.0 dB ltrtsurmixlev : -3.0 dB lorocmixlev : -3.0 dB lorosurmixlev : -3.0 dB dialnorm_Average : -26 dB dialnorm_Minimum : -26 dB dialnorm_Maximum : -26 dB Audio #2 ID : 3 Format : E-AC-3 Format/Info : Enhanced AC-3 Commercial name : Dolby Digital Plus Codec ID : A_EAC3 Duration : 1 h 24 min Bit rate mode : Constant Bit rate : 448 kb/s Channel(s) : 6 channels Channel layout : L R C LFE Ls Rs Sampling rate : 48.0 kHz Frame rate : 31.250 FPS (1536 SPF) Compression mode : Lossy Stream size : 270 MiB (9%) Title : DUB -Lucky Production Language : Russian Service kind : Complete Main Default : No Forced : No Dialog Normalization : -26 dB compr : -0.28 dB dmixmod : Lo/Ro ltrtcmixlev : -3.0 dB ltrtsurmixlev : -3.0 dB lorocmixlev : -3.0 dB lorosurmixlev : -3.0 dB dialnorm_Average : -26 dB dialnorm_Minimum : -26 dB dialnorm_Maximum : -26 dB Audio #3 ID : 4 Format : AC-3 Format/Info : Audio Coding 3 Commercial name : Dolby Digital Codec ID : A_AC3 Duration : 1 h 24 min Bit rate mode : Constant Bit rate : 640 kb/s Channel(s) : 6 channels Channel layout : L R C LFE Ls Rs Sampling rate : 48.0 kHz Frame rate : 31.250 FPS (1536 SPF) Compression mode : Lossy Stream size : 385 MiB (13%) Title : Original Language : English Service kind : Complete Main Default : No Forced : No Dialog Normalization : -31 dB cmixlev : -4.5 dB surmixlev : -6 dB dialnorm_Average : -31 dB dialnorm_Minimum : -31 dB dialnorm_Maximum : -31 dB Text #1 ID : 5 Format : UTF-8 Codec ID : S_TEXT/UTF8 Codec ID/Info : UTF-8 Plain Text Duration : 1 h 16 min Bit rate : 2 b/s Frame rate : 0.008 FPS Count of elements : 36 Stream size : 1.41 KiB (0%) Title : Forced -HDRezka Studio Language : Russian Default : No Forced : No Text #2 ID : 6 Format : UTF-8 Codec ID : S_TEXT/UTF8 Codec ID/Info : UTF-8 Plain Text Duration : 1 h 18 min Bit rate : 79 b/s Frame rate : 0.228 FPS Count of elements : 1080 Stream size : 45.9 KiB (0%) Title : Full -Кинопоиск HD Language : Russian Default : No Forced : No Text #3 ID : 7 Format : UTF-8 Codec ID : S_TEXT/UTF8 Codec ID/Info : UTF-8 Plain Text Duration : 1 h 18 min Bit rate : 55 b/s Frame rate : 0.232 FPS Count of elements : 1100 Stream size : 32.2 KiB (0%) Title : Full Language : English Default : No Forced : No Text #4 ID : 8 Format : UTF-8 Codec ID : S_TEXT/UTF8 Codec ID/Info : UTF-8 Plain Text Duration : 1 h 23 min Bit rate : 60 b/s Frame rate : 0.268 FPS Count of elements : 1334 Stream size : 37.0 KiB (0%) Title : SDH Language : English Default : No Forced : No Menu 00:00:00.000 : en:Chapter 01 00:06:17.208 : en:Chapter 02 00:14:53.166 : en:Chapter 03 00:21:51.625 : en:Chapter 04 00:27:37.458 : en:Chapter 05 00:35:01.500 : en:Chapter 06 00:42:45.500 : en:Chapter 07 00:48:24.083 : en:Chapter 08 00:55:23.708 : en:Chapter 09 01:03:03.625 : en:Chapter 10 01:10:28.333 : en:Chapter 11 01:20:57.791 : en:Chapter 12
Релиз: Присоединяйся к: Кликай на баннеры.

Всего файлов в раздаче: 1 
The.Wrath.of.Becky.2023.DUB.BDRip.720p.x264.seleZen.mkv2.79 GB

Похожие раздачи по запросу - Бекки
2024-06-11 magnet Бекки в ярости / The Wrath of Becky (2023) BDRip 1080p от селезень | D | Lucky Production 6.78 GB ↑ 0 ↓ 0
2024-06-07 magnet Бекки в ярости / The Wrath of Becky (2023) BDRemux 1080p | D, P, P2, A 19.09 GB ↑ 0 ↓ 0
2024-06-02 magnet Бекки в ярости / The Wrath of Becky (2023) BDRip-AVC от DoMiNo & селезень | D | Lucky Production 1.46 GB ↑ 0 ↓ 0
2024-06-01 magnet Бекки в ярости / The Wrath of Becky (2023) BDRip-AVC от New-Team | D, P 2.18 GB ↑ 0 ↓ 0
2024-06-01 magnet Бекки в ярости / The Wrath of Becky (2023) BDRip 1080p от MegaPeer | D, P, P2, A 7.87 GB ↑ 0 ↓ 0
2024-06-01 magnet Бекки в ярости / The Wrath of Becky (2023) BDRip от MegaPeer | D 1.46 GB ↑ 0 ↓ 0
2024-03-19 magnet Бекки в ярости / The Wrath of Becky (2023) WEB-DL 720p от селезень | D 1.82 GB ↑ 0 ↓ 0

Комментарии


Зарегистрируйтесь чтобы добавить комментарий
Торрент клиент
byTorrent - программа для загрузки торрент-файлов.

Скачать byTorrent.exe (1,5 МБ)

Скачать byTorrent.zip (0,6 МБ)

Поддержи torrent.by
российских рублей
(300 российских рублей это 4$)

Обратная связь rss

End game ©