↑↓torrent.by
Поиск
Логин:  Регистрация
Пароль:

Переговорщик / The Negotiator (1998) BDRip 1080р | D, P, P2, A

download Скачать торрент-файл   magnet Магнитная ссылка Размер: 16.50 GB Добавлен: 2024-06-02 05:00
Пиры будут получены из сети DHT
Последний сидер был замечен 2024-06-02 15:20
Информация о фильме Название: Переговорщик Оригинальное название: The Negotiator Год выхода: 1998 Жанр: Триллер, боевик, криминал, детектив Режиссер: Ф. Гэри Грей В ролях: Сэмюэл Л. Джексон, Кевин Спейси, Дэвид Морс, Рон Рифкин, Джон Спенсер, Дж.Т. Уолш, Шиван Фэллон, Пол Джаматти, Реджина Тейлор, Брюс Битти О фильме Переговорщик — это полицейский, ведущий переговоры с преступниками или террористами, захватившими заложников. Герой картины Дэнни Роумэн — один из лучших «переговорщиков» в Чикаго. Напарник и близкий друг Роумэна сообщает ему, что в Фонде помощи инвалидам, членом правления которого был Дэнни, расхищают деньги, а он знает, кто за этим стоит. Это Терренс Найбаум из отдела внутренних расследований. Друг назначил Дэнни встречу в парке, намереваясь сообщить ему полные данные, но, когда Дэнни пришел, тот уже был застрелен. На следующий день к нему с обыском приходит именно Найбаум. У Роумэна находят банковские документы на крупные суммы денег. Его обвиняют в убийстве друга. Понимая, что шансов доказать свою невиновность нет, Роумэн берет Найбаума и еще трех человек в заложники. Он не может доверять полицейским своего участка, так как знает, что среди них убийцы его напарника, и требует, чтобы в качестве переговорщика был приглашен специалист с другого участка. Сумеет ли Роумэн доказать свою невиновность? Страна: Германия, США Студия: Mandeville Films, Monarchy Enterprises, New Regency Pictures, Taurus Film, Warner Bros. Pictures Co Продолжительность: 02:19:34 Перевод: Дублированный, профессиональный многоголосый, профессиональный двухголосый, авторский одноголосый Файл Качество: BDRip 1080p Видео: MPEG-4 AVC, 1920х800 (2.40:1), 11.9 Mbps, 23.976 fps Аудио 1: Russian: 48 kHz, AC3, 5.1 ch, 384 kbps ~ DUB, R5 Аудио 2: Russian: 48 kHz, DTS, 5.1 ch, 1509 kbps ~ AVO, А. Гаврилов Аудио 3: Russian: 48 kHz, DTS, 5.1 ch, 1509 kbps ~ AVO, Ю. Живов Аудио 4: Russian: 48 kHz, AC3, 2.0 ch, 192 kbps ~ AVO, А. Кашкин Аудио 5: Russian: 48 kHz, AC3, 2.0 ch, 192 kbps ~ MVO, Варус Видео Аудио 6: Ukrainian: 48 kHz, AC3, 6 ch, 384 kbps ~ DVO, 2+2 Аудио 7: Ukrainian: 48 kHz, AC3, 2 ch, 192 kbps ~ MVO, ICTV Аудио 8: English: 48 kHz, AC3, 5.1 ch, 640 kbps - Оригинал Субтитры: Русские, английские Навигация по главам: Есть Релиз от:
[+] Скриншоты
[+] MediaInfoОбщее Уникальный идентификатор : 179184253012161041150806238527965298604 (0x86CDA1C0853810748F65E3CE84D2FFAC) Полное имя : The.Negotiator.1998.1080p.BluRay.5xRus.2xUkr.Eng.HDCLUB.mkv Формат : Matroska Версия формата : Version 4 / Version 2 Размер файла : 16,5 Гбайт Продолжительность : 2 ч. 19 м. Общий поток : 16,9 Мбит/сек Дата кодирования : UTC 2014-12-20 10:24:11 Программа кодирования : mkvmerge v7.3.0 ('Nouages') 64bit built on Oct 22 2014 18:53:34 Библиотека кодирования : libebml v1.3.0 + libmatroska v1.4.1 Обложка : Yes Attachments : cover Видео Идентификатор : 1 Формат : AVC Формат/Информация : Advanced Video Codec Профиль формата : High@L4.1 Параметр CABAC формата : Да Параметр RefFrames формата : 5 кадров Идентификатор кодека : V_MPEG4/ISO/AVC Продолжительность : 2 ч. 19 м. Битрейт : 11,9 Мбит/сек Ширина : 1920 пикселей Высота : 800 пикселей Соотношение сторон : 2,40:1 Режим частоты кадров : Постоянный Частота кадров : 23,976 (24000/1001) кадра/сек Цветовое пространство : YUV Субдискретизация насыщенности : 4:2:0 Битовая глубина : 8 бит Тип развёртки : Прогрессивная Бит/(Пиксели*Кадры) : 0.324 Размер потока : 11,3 Гбайт (68%) Заголовок : The Negotiator (1998) BDRip 1080p Библиотека кодирования : x264 core 142 r2491 24e4fed Настройки программы : cabac=1 / ref=5 / deblock=1:-3:-3 / analyse=0x3:0x113 / me=umh / subme=11 / psy=1 / psy_rd=1.00:0.00 / mixed_ref=1 / me_range=24 / chroma_me=1 / trellis=2 / 8x8dct=1 / cqm=0 / deadzone=21,11 / fast_pskip=0 / chroma_qp_offset=-2 / threads=12 / lookahead_threads=3 / sliced_threads=0 / nr=0 / decimate=0 / interlaced=0 / bluray_compat=0 / constrained_intra=0 / bframes=12 / b_pyramid=2 / b_adapt=2 / b_bias=0 / direct=3 / weightb=1 / open_gop=0 / weightp=2 / keyint=250 / keyint_min=23 / scenecut=40 / intra_refresh=0 / rc=2pass / mbtree=0 / bitrate=11925 / ratetol=1.0 / qcomp=0.60 / qpmin=10 / qpmax=51 / qpstep=4 / cplxblur=20.0 / qblur=0.5 / ip_ratio=1.40 / pb_ratio=1.30 / aq=1:1.00 Язык : English Default : Да Forced : Нет Аудио #1 Идентификатор : 2 Формат : AC-3 Формат/Информация : Audio Coding 3 Параметр Endianness формата : Big Идентификатор кодека : A_AC3 Продолжительность : 2 ч. 19 м. Вид битрейта : Постоянный Битрейт : 384 Кбит/сек Каналы : 6 каналов Расположение каналов : Front: L C R, Side: L R, LFE Частота : 48,0 КГц Частота кадров : 31,250 кадров/сек (1536 SPF) Битовая глубина : 16 бит Метод сжатия : С потерями Размер потока : 383 Мбайт (2%) Заголовок : Dub - AC3 5.1 @ 384 kbps Язык : Russian Default : Да Forced : Нет Аудио #2 Идентификатор : 3 Формат : DTS Формат/Информация : Digital Theater Systems Режим : 16 Параметр Endianness формата : Big Идентификатор кодека : A_DTS Продолжительность : 2 ч. 19 м. Вид битрейта : Постоянный Битрейт : 1509 Кбит/сек Каналы : 6 каналов Расположение каналов : Front: L C R, Side: L R, LFE Частота : 48,0 КГц Частота кадров : 93,750 кадра/сек (512 SPF) Битовая глубина : 16 бит Метод сжатия : С потерями Размер потока : 1,47 Гбайт (9%) Заголовок : AVO - DTS 5.1 @ 1536 kbps Язык : Russian Default : Нет Forced : Нет Аудио #3 Идентификатор : 4 Формат : DTS Формат/Информация : Digital Theater Systems Режим : 16 Параметр Endianness формата : Big Идентификатор кодека : A_DTS Продолжительность : 2 ч. 19 м. Вид битрейта : Постоянный Битрейт : 1509 Кбит/сек Каналы : 6 каналов Расположение каналов : Front: L C R, Side: L R, LFE Частота : 48,0 КГц Частота кадров : 93,750 кадра/сек (512 SPF) Битовая глубина : 16 бит Метод сжатия : С потерями Размер потока : 1,47 Гбайт (9%) Заголовок : AVO - DTS 5.1 @ 1536 kbps Язык : Russian Default : Нет Forced : Нет Аудио #4 Идентификатор : 5 Формат : AC-3 Формат/Информация : Audio Coding 3 Параметр Endianness формата : Big Идентификатор кодека : A_AC3 Продолжительность : 2 ч. 19 м. Вид битрейта : Постоянный Битрейт : 192 Кбит/сек Каналы : 2 канала Расположение каналов : Front: L R Частота : 48,0 КГц Частота кадров : 31,250 кадров/сек (1536 SPF) Битовая глубина : 16 бит Метод сжатия : С потерями Размер потока : 192 Мбайт (1%) Заголовок : AVO - AC3 2.0 @ 192 kbps Язык : Russian Default : Нет Forced : Нет Аудио #5 Идентификатор : 6 Формат : AC-3 Формат/Информация : Audio Coding 3 Параметр Endianness формата : Big Идентификатор кодека : A_AC3 Продолжительность : 2 ч. 19 м. Вид битрейта : Постоянный Битрейт : 192 Кбит/сек Каналы : 2 канала Расположение каналов : Front: L R Частота : 48,0 КГц Частота кадров : 31,250 кадров/сек (1536 SPF) Битовая глубина : 16 бит Метод сжатия : С потерями Размер потока : 192 Мбайт (1%) Заголовок : MVO - AC3 2.0 @ 192 kbps Язык : Russian Default : Нет Forced : Нет Аудио #6 Идентификатор : 7 Формат : AC-3 Формат/Информация : Audio Coding 3 Параметр Endianness формата : Big Идентификатор кодека : A_AC3 Продолжительность : 2 ч. 19 м. Вид битрейта : Постоянный Битрейт : 384 Кбит/сек Каналы : 6 каналов Расположение каналов : Front: L C R, Side: L R, LFE Частота : 48,0 КГц Частота кадров : 31,250 кадров/сек (1536 SPF) Битовая глубина : 16 бит Метод сжатия : С потерями Размер потока : 383 Мбайт (2%) Заголовок : DVO - AC3 5.1 @ 384 kbps Язык : Ukrainian Default : Нет Forced : Нет Аудио #7 Идентификатор : 8 Формат : AC-3 Формат/Информация : Audio Coding 3 Параметр Endianness формата : Big Идентификатор кодека : A_AC3 Продолжительность : 2 ч. 19 м. Вид битрейта : Постоянный Битрейт : 192 Кбит/сек Каналы : 2 канала Расположение каналов : Front: L R Частота : 48,0 КГц Частота кадров : 31,250 кадров/сек (1536 SPF) Битовая глубина : 16 бит Метод сжатия : С потерями Размер потока : 192 Мбайт (1%) Заголовок : MVO - AC3 2.0 @ 192 kbps Язык : Ukrainian Default : Нет Forced : Нет Аудио #8 Идентификатор : 9 Формат : AC-3 Формат/Информация : Audio Coding 3 Параметр Endianness формата : Big Идентификатор кодека : A_AC3 Продолжительность : 2 ч. 19 м. Вид битрейта : Постоянный Битрейт : 640 Кбит/сек Каналы : 6 каналов Расположение каналов : Front: L C R, Side: L R, LFE Частота : 48,0 КГц Частота кадров : 31,250 кадров/сек (1536 SPF) Битовая глубина : 16 бит Метод сжатия : С потерями Размер потока : 639 Мбайт (4%) Заголовок : AC3 5.1 @ 640 kbps Язык : English Default : Нет Forced : Нет Текст #1 Идентификатор : 10 Формат : UTF-8 Идентификатор кодека : S_TEXT/UTF8 Идентификатор кодека/Информация : UTF-8 Plain Text Заголовок : Full Язык : Russian Default : Нет Forced : Нет Текст #2 Идентификатор : 11 Формат : UTF-8 Идентификатор кодека : S_TEXT/UTF8 Идентификатор кодека/Информация : UTF-8 Plain Text Заголовок : Full SDH Язык : English Default : Нет Forced : Нет Меню 00:00:00.000 : :00:00:00.000 00:02:32.150 : :00:02:32.150 00:06:42.568 : :00:06:42.568 00:09:56.095 : :00:09:56.095 00:12:10.520 : :00:12:10.520 00:15:04.528 : :00:15:04.528 00:18:33.862 : :00:18:33.862 00:23:52.638 : :00:23:52.638 00:26:27.168 : :00:26:27.168 00:30:53.893 : :00:30:53.893 00:34:28.983 : :00:34:28.983 00:38:14.041 : :00:38:14.041 00:42:33.676 : :00:42:33.676 00:46:05.137 : :00:46:05.137 00:50:02.582 : :00:50:02.582 00:53:30.582 : :00:53:30.582 00:56:40.230 : :00:56:40.230 00:59:55.550 : :00:59:55.550 01:02:32.957 : :01:02:32.957 01:05:20.082 : :01:05:20.082 01:08:21.930 : :01:08:21.930 01:10:46.325 : :01:10:46.325 01:13:38.205 : :01:13:38.205 01:17:25.182 : :01:17:25.182 01:21:29.341 : :01:21:29.341 01:24:39.407 : :01:24:39.407 01:29:54.639 : :01:29:54.639 01:34:25.033 : :01:34:25.033 01:35:47.408 : :01:35:47.408 01:41:47.643 : :01:41:47.643 01:46:09.905 : :01:46:09.905 01:50:14.482 : :01:50:14.482 01:53:52.492 : :01:53:52.492 01:58:16.589 : :01:58:16.589 02:02:17.538 : :02:02:17.538 02:05:43.077 : :02:05:43.077 02:09:11.869 : :02:09:11.869 02:10:59.476 : :02:10:59.476 02:14:04.703 : :02:14:04.703

Всего файлов в раздаче: 1 
The.Negotiator.1998.1080p.BluRay.5xRus.2xUkr.Eng.HDCLUB.mkv16.50 GB

Похожие раздачи по запросу - Переговорщик
2024-05-26 magnet Переговорщик / The Negotiator (1998) BDRip-AVC от New-Team | D, A 3.50 GB ↑ 0 ↓ 0
2024-05-26 magnet Переговорщик / The Negotiator (1998) HDRip-AVC от DoMiNo | D 1.08 GB ↑ 0 ↓ 0
2024-05-26 magnet Переговорщик / The Negotiator (1998) BDRip от New-Team | D 1.09 GB ↑ 0 ↓ 0
2024-05-26 magnet Переговорщик / The Negotiator (1998) BDRip 720p от New-Team | D, P, A 4.37 GB ↑ 0 ↓ 0
2023-12-21 magnet Переговорщик / Торг / Gyoseob / The Point Men (2023) BDRip от MegaPeer | D 1.46 GB ↑ 0 ↓ 0

Кто качает (только для создателя раздачи и модераторов): Локальные пиры отсутствуют

Комментарии


Зарегистрируйтесь чтобы добавить комментарий
Торрент клиент
byTorrent - программа для загрузки торрент-файлов.

Скачать byTorrent.exe (1,5 МБ)

Скачать byTorrent.zip (0,6 МБ)

Поддержи torrent.by
российских рублей
(300 российских рублей это 4$)

Обратная связь rss

End game ©