↑↓torrent.by
Поиск
Логин:  Регистрация
Пароль:

Нирвана / Nirvana (1997) BDRip 1080p | P2, А

download Скачать торрент-файл   magnet Магнитная ссылка Размер: 9.64 GB Добавлен: 2024-06-02 05:00
Пиры будут получены из сети DHT
Последний сидер был замечен 2024-06-02 14:24
Страна: Италия, Франция Жанр: фантастика, драма, детектив Год выпуска: 1997 Продолжительность: 01:49:14 Перевод 1: Профессиональный (двухголосый закадровый) Перевод 2: Профессиональный (двухголосый закадровый) ОРТ Перевод 3: Профессиональный (двухголосый закадровый) ТВС Перевод 4: Авторский (одноголосый закадровый) Андрей Гаврилов Субтитры: русские, итальянские, английские Оригинальная аудиодорожка: итальянский, английский Режиссер: Габриэле Сальваторес / Gabriele Salvatores В ролях: Диего Абатантуоно, Кристофер Ламберт, Эмманюэль Сенье, Аманда Сандрелли, Джиджо Альберти, Сильвио Орландо, Алессандро Кремона, Антонио Луиджи Гримальди, Марчелло Маццарелла, Роман Павлушев, Фабио Сартор, Хэл Яманучи, Риккардо Дзинна, Клаудио Бизио, Антонио Катанья, Уго Конти, Даниэле Обер, Жермен Дамар, Амината Фолл, Джанни Палладино, Стефания Рокка, Лука Торакка, Мариялуиза Тадеи, Бед Черкьяи, Рикардо Перна, Джованни Соренти, Франко Дзукка Описание: В жестоком и мрачном мире будущего программист Джимми создает компьютерные игры, однако, в его последнем шедевре под названием «Нирвана» возник сбой, в результате которого главный персонаж игры, Соло, обрел разум. Осознавая собственную нереальность, Соло требует прекратить его никчемную «жизнь». Но Джимми одержим желанием найти свою пропавшую подругу, и вскоре он отправляется на поиски тех, кто может знать, что произошло с Лизой. Постоянно сталкиваясь с опасностью в загадочных местах, о существовании которых известно лишь немногим, Джимми знакомится с подпольными хакерами и они соглашаются помочь ему. Но чтобы стереть игру, программисту и его друзьям придется проникнуть в тщательно охраняемое здание корпорации, где хранится оригинал игры... Тип релиза: BDRip 1080p Контейнер: MKV Видео: AVC, 1920Х1036, 1,85:1, 25,000 fps, 11000 Kbps Аудио 1: русский, A_AC3, 48,0 KHz, 384 Kbps, 6 ch (L R C LFE Ls Rs), двухголосый Аудио 2: русский, A_AC3, 48,0 KHz, 192 Kbps, 2 ch (L R), ОРТ Аудио 3: русский, A_AC3, 48,0 KHz, 192 Kbps, 2 ch (L R), ТВС Аудио 4: русский, A_AC3, 48,0 KHz, 192 Kbps, 2 ch (L R), Андрей Гаврилов Аудио 5: итальянский, A_AC3, 48,0 KHz, 224 Kbps, 6 ch (L R C LFE Ls Rs) Аудио 6: английский, A_AC3, 48,0 KHz, 448 Kbps, 6 ch (L R C LFE Ls Rs)
[+] MediaInfo Общее Уникальный идентификатор : 71875293306999460361280286054283931552 (0x3612AD8F0F18580622143B67579AEFA0) Полное имя : D:UsersHomeDesktopраздачиНирванаNIRVANA.1997.BDRIP.1080p.x264.mkv Формат : Matroska Версия формата : Version 4 Размер файла : 9,64 Гбайт Продолжительность : 1 ч. 49 м. Общий поток : 12,6 Мбит/сек Дата кодирования : UTC 2024-05-31 10:59:42 Программа кодирования : mkvmerge v45.0.0 ('Heaven in Pennies') 64-bit Библиотека кодирования : libebml v1.3.10 + libmatroska v1.5.2 Видео Идентификатор : 1 Формат : AVC Формат/Информация : Advanced Video Codec Профиль формата : High@L4.1 Настройки формата : CABAC / 4 Ref Frames Параметр CABAC формата : Да Параметр RefFrames формата : 4 кадра Идентификатор кодека : V_MPEG4/ISO/AVC Продолжительность : 1 ч. 49 м. Битрейт : 11,0 Мбит/сек Ширина : 1 920 пикселей Высота : 1 036 пикселей Соотношение сторон : 1,85:1 Режим частоты кадров : Постоянный Частота кадров : 25,000 кадров/сек Цветовое пространство : YUV Субдискретизация насыщенности : 4:2:0 Битовая глубина : 8 бит Тип развёртки : Прогрессивная Бит/(Пиксели*Кадры) : 0.221 Размер потока : 8,39 Гбайт (87%) Библиотека кодирования : x264 core 164 r3107 a8b68ebf Настройки программы : cabac=1 / ref=4 / deblock=1:-3:-3 / analyse=0x3:0x133 / me=umh / subme=9 / psy=1 / psy_rd=1.00:0.00 / mixed_ref=1 / me_range=32 / chroma_me=1 / trellis=2 / 8x8dct=1 / cqm=0 / deadzone=21,11 / fast_pskip=0 / chroma_qp_offset=-2 / threads=18 / lookahead_threads=4 / sliced_threads=0 / nr=0 / decimate=1 / interlaced=0 / bluray_compat=0 / constrained_intra=0 / bframes=10 / b_pyramid=2 / b_adapt=2 / b_bias=0 / direct=3 / weightb=1 / open_gop=0 / weightp=2 / keyint=250 / keyint_min=25 / scenecut=40 / intra_refresh=0 / rc_lookahead=60 / rc=2pass / mbtree=1 / bitrate=11000 / ratetol=1.0 / qcomp=0.60 / qpmin=0 / qpmax=69 / qpstep=4 / cplxblur=20.0 / qblur=0.5 / vbv_maxrate=62500 / vbv_bufsize=78125 / nal_hrd=none / filler=0 / ip_ratio=1.40 / aq=1:1.00 Default : Да Forced : Нет Цветовой диапазон : Limited Основные цвета : BT.709 Характеристики трансфера : BT.709 Коэффициенты матрицы : BT.709 Аудио #1 Идентификатор : 2 Формат : AC-3 Формат/Информация : Audio Coding 3 Коммерческое название : Dolby Digital Идентификатор кодека : A_AC3 Продолжительность : 1 ч. 49 м. Вид битрейта : Постоянный Битрейт : 384 Кбит/сек Каналы : 6 каналов Channel layout : L R C LFE Ls Rs Частота : 48,0 КГц Частота кадров : 31,250 кадров/сек (1536 SPF) Метод сжатия : С потерями Размер потока : 300 Мбайт (3%) Заголовок : Двухголосый лицензия Язык : Russian Service kind : Complete Main Default : Нет Forced : Нет Аудио #2 Идентификатор : 3 Формат : AC-3 Формат/Информация : Audio Coding 3 Коммерческое название : Dolby Digital Идентификатор кодека : A_AC3 Продолжительность : 1 ч. 49 м. Вид битрейта : Постоянный Битрейт : 192 Кбит/сек Каналы : 2 канала Channel layout : L R Частота : 48,0 КГц Частота кадров : 31,250 кадров/сек (1536 SPF) Метод сжатия : С потерями Размер потока : 150 Мбайт (2%) Заголовок : Двухголосый ОРТ Язык : Russian Service kind : Complete Main Default : Нет Forced : Нет Аудио #3 Идентификатор : 4 Формат : AC-3 Формат/Информация : Audio Coding 3 Коммерческое название : Dolby Digital Идентификатор кодека : A_AC3 Продолжительность : 1 ч. 49 м. Вид битрейта : Постоянный Битрейт : 192 Кбит/сек Каналы : 2 канала Channel layout : L R Частота : 48,0 КГц Частота кадров : 31,250 кадров/сек (1536 SPF) Метод сжатия : С потерями Размер потока : 150 Мбайт (2%) Заголовок : Двухголосый ТВС Язык : Russian Service kind : Complete Main Default : Нет Forced : Нет Аудио #4 Идентификатор : 5 Формат : AC-3 Формат/Информация : Audio Coding 3 Коммерческое название : Dolby Digital Идентификатор кодека : A_AC3 Продолжительность : 1 ч. 49 м. Вид битрейта : Постоянный Битрейт : 192 Кбит/сек Каналы : 2 канала Channel layout : L R Частота : 48,0 КГц Частота кадров : 31,250 кадров/сек (1536 SPF) Метод сжатия : С потерями Размер потока : 150 Мбайт (2%) Заголовок : Гаврилов Язык : Russian Service kind : Complete Main Default : Нет Forced : Нет Аудио #5 Идентификатор : 6 Формат : AC-3 Формат/Информация : Audio Coding 3 Коммерческое название : Dolby Digital Идентификатор кодека : A_AC3 Продолжительность : 1 ч. 49 м. Вид битрейта : Постоянный Битрейт : 224 Кбит/сек Каналы : 6 каналов Channel layout : L R C LFE Ls Rs Частота : 48,0 КГц Частота кадров : 31,250 кадров/сек (1536 SPF) Метод сжатия : С потерями Размер потока : 175 Мбайт (2%) Язык : Italian Service kind : Complete Main Default : Нет Forced : Нет Аудио #6 Идентификатор : 7 Формат : AC-3 Формат/Информация : Audio Coding 3 Коммерческое название : Dolby Digital Идентификатор кодека : A_AC3 Продолжительность : 1 ч. 49 м. Вид битрейта : Постоянный Битрейт : 448 Кбит/сек Каналы : 6 каналов Channel layout : L R C LFE Ls Rs Частота : 48,0 КГц Частота кадров : 31,250 кадров/сек (1536 SPF) Метод сжатия : С потерями Размер потока : 350 Мбайт (4%) Язык : English Service kind : Complete Main Default : Нет Forced : Нет Текст #1 Идентификатор : 8 Формат : UTF-8 Идентификатор кодека : S_TEXT/UTF8 Идентификатор кодека/Информация : UTF-8 Plain Text Продолжительность : 1 ч. 44 м. Битрейт : 110 бит/сек Count of elements : 1457 Размер потока : 85,1 Кбайт (0%) Язык : Russian Default : Нет Forced : Нет Текст #2 Идентификатор : 9 Формат : UTF-8 Идентификатор кодека : S_TEXT/UTF8 Идентификатор кодека/Информация : UTF-8 Plain Text Продолжительность : 1 ч. 44 м. Битрейт : 75 бит/сек Count of elements : 1288 Размер потока : 57,8 Кбайт (0%) Язык : Italian Default : Нет Forced : Нет Текст #3 Идентификатор : 10 Формат : UTF-8 Идентификатор кодека : S_TEXT/UTF8 Идентификатор кодека/Информация : UTF-8 Plain Text Продолжительность : 1 ч. 43 м. Битрейт : 57 бит/сек Count of elements : 1332 Размер потока : 43,5 Кбайт (0%) Язык : English Default : Нет Forced : Нет Меню 00:00:00.000 : en:Chapter 01 00:10:14.360 : en:Chapter 02 00:18:15.800 : en:Chapter 03 00:26:35.400 : en:Chapter 04 00:33:48.480 : en:Chapter 05 00:43:11.880 : en:Chapter 06 00:50:53.360 : en:Chapter 07 00:59:57.000 : en:Chapter 08 01:09:05.080 : en:Chapter 09 01:18:09.560 : en:Chapter 10 01:28:40.080 : en:Chapter 11 01:37:43.840 : en:Chapter 12
[+] Скриншоты

Всего файлов в раздаче: 1 
NIRVANA.1997.BDRIP.1080p.x264.mkv9.64 GB

Кто качает (только для создателя раздачи и модераторов): Локальные пиры отсутствуют

Комментарии


Зарегистрируйтесь чтобы добавить комментарий
Торрент клиент
byTorrent - программа для загрузки торрент-файлов.

Скачать byTorrent.exe (1,5 МБ)

Скачать byTorrent.zip (0,6 МБ)

Поддержи torrent.by
российских рублей
(300 российских рублей это 4$)

Обратная связь rss

End game ©