↑↓torrent.by
Поиск
Логин:  Регистрация
Пароль:

Леттеркенни / Letterkenny [S08] (2019) WEBRip 1080p | Jaskier

download Скачать торрент-файл   magnet Магнитная ссылка Размер: 6.30 GB Добавлен: 2024-06-02 11:00
Пиры будут получены из сети DHT
Последний сидер был замечен 2024-06-08 12:22
Название: Леттеркенни Оригинальное название: Letterkenny Год выхода: 2019 Производство: Канада / New Metric Media Жанр: Комедия Перевод: Профессиональный многоголосый Продолжительность: 07х ~00:25:00 Режиссёры: Джейкоб Тирни, Тео Ким, Спенсер Мэйби В ролях: Джаред Кисо, Нэйтан Дэйлз, Мишель Майлетт, Эндрю Херр, К. Тревор Уилсон, Дилан Плэйфейр, Тайлер Джонстон, Ивэн Штерн, Лиза Кодрингтон Описание: В центре сюжета - Уэйн и его приятель Дэрил. Они живут на своей ферме в небольшом городке Леттеркенни, что в провинции Онтарио, и намерены защищать свой сельский мир от надвигающейся урбанизации. Всё население Леттеркенни можно условно поделить на три группы: панки, хоккеисты и простые работяги. Все эти группы постоянно не в ладах друг с другом, и зачастую это приводит к нелепым ситуациям и даже к рукоприкладству. Формат: MKV Качество: WEBRip 1080p Видео: MPEG4 AVC / ~4813 kbps / 1920x1080 / 0.097 Бит/(Пиксели*Кадры) / 23.976 fps Аудио 01: AAC, 2 ch, 109 kbps | Русский, MVO | Jaskier | 18+ Аудио 02: E-AC-3, 6 ch, 256 kbps | Original | Субтитры: Английские
[+] MediainfoFormat : Matroska Format version : Version 4 File size : 875 MiB Duration : 23 min 37 s Overall bit rate : 5 180 kb/s Encoded date : UTC 2023-03-23 20:24:49 Writing application : mkvmerge v51.0.0 ('I Wish') 64-bit Writing library : libebml v1.4.0 + libmatroska v1.6.2 Video ID : 1 Format : AVC Format/Info : Advanced Video Codec Format profile : High@L4 Format settings : CABAC / 4 Ref Frames Format settings, CABAC : Yes Format settings, Reference frames : 4 frames Codec ID : V_MPEG4/ISO/AVC Duration : 23 min 37 s Bit rate : 4 813 kb/s Width : 1 920 pixels Height : 1 080 pixels Display aspect ratio : 16:9 Frame rate mode : Constant Frame rate : 23.976 (24000/1001) FPS Color space : YUV Chroma subsampling : 4:2:0 Bit depth : 8 bits Scan type : Progressive Bits/(Pixel*Frame) : 0.097 Stream size : 813 MiB (93%) Default : Yes Forced : No Audio #1 ID : 2 Format : AAC LC Format/Info : Advanced Audio Codec Low Complexity Codec ID : A_AAC-2 Duration : 23 min 37 s Bit rate : 109 kb/s Channel(s) : 2 channels Channel layout : L R Sampling rate : 48.0 kHz Frame rate : 46.875 FPS (1024 SPF) Compression mode : Lossy Stream size : 18.3 MiB (2%) Language : Russian Default : Yes Forced : No Audio #2 ID : 3 Format : E-AC-3 Format/Info : Enhanced AC-3 Commercial name : Dolby Digital Plus Codec ID : A_EAC3 Duration : 23 min 37 s Bit rate mode : Constant Bit rate : 256 kb/s Channel(s) : 6 channels Channel layout : L R C LFE Ls Rs Sampling rate : 48.0 kHz Frame rate : 31.250 FPS (1536 SPF) Compression mode : Lossy Stream size : 43.3 MiB (5%) Service kind : Complete Main Default : No Forced : No Text ID : 4 Format : UTF-8 Codec ID : S_TEXT/UTF8 Codec ID/Info : UTF-8 Plain Text Duration : 21 min 40 s Bit rate : 132 b/s Frame rate : 0.452 FPS Count of elements : 588 Stream size : 21.0 KiB (0%) Language : English Default : No Forced : No
[+] Скриншоты

Всего файлов в раздаче: 7 
Letterkenny.S08E01.1080p.mkv875.26 MB
Letterkenny.S08E02.1080p.mkv885.03 MB
Letterkenny.S08E03.1080p.mkv1007.43 MB
Letterkenny.S08E04.1080p.mkv929.84 MB
Letterkenny.S08E05.1080p.mkv976.94 MB
Letterkenny.S08E06.1080p.mkv1.04 GB
Letterkenny.S08E07.1080p.mkv713.60 MB

Похожие раздачи по запросу - Леттеркенни
2024-06-03 magnet Леттеркенни / Letterkenny [S12] (2023) WEB-DL 1080p | Jaskier 5.55 GB ↑ 0 ↓ 0
2024-06-02 magnet Леттеркенни / Letterkenny [S10] (2021) WEBRip 1080p | Jaskier 6.01 GB ↑ 0 ↓ 0
2024-06-02 magnet Леттеркенни / Letterkenny [S11] (2022) WEBRip 1080p | Jaskier 5.47 GB ↑ 0 ↓ 0
2024-06-02 magnet Леттеркенни / Letterkenny [S09] (2020) WEBRip 1080p | Jaskier 4.58 GB ↑ 0 ↓ 0
2024-05-31 magnet Леттеркенни / Letterkenny [S06] (2018) WEBRip 1080p | Jaskier 6.56 GB ↑ 0 ↓ 0
2024-05-30 magnet Леттеркенни / Letterkenny [S05] (2018) WEBRip 1080p | Jaskier 5.05 GB ↑ 0 ↓ 0
2024-05-30 magnet Леттеркенни / Letterkenny [S04] (2017) WEBRip 1080p | Jaskier 6.12 GB ↑ 0 ↓ 0

Кто качает (только для создателя раздачи и модераторов): Локальные пиры отсутствуют

Комментарии


Зарегистрируйтесь чтобы добавить комментарий
Торрент клиент
byTorrent - программа для загрузки торрент-файлов.

Скачать byTorrent.exe (1,5 МБ)

Скачать byTorrent.zip (0,6 МБ)

Поддержи torrent.by
российских рублей
(300 российских рублей это 4$)

Обратная связь rss

End game ©