↑↓torrent.by
Поиск
Логин:  Регистрация
Пароль:

Леттеркенни / Letterkenny [S09] (2020) WEBRip 1080p | Jaskier

download Скачать торрент-файл   magnet Магнитная ссылка Размер: 4.58 GB Добавлен: 2024-06-02 11:00
Пиры будут получены из сети DHT
Последний сидер был замечен 2024-06-08 12:22
Название: Леттеркенни Оригинальное название: Letterkenny Год выхода: 2020 Производство: Канада / New Metric Media Жанр: Комедия Перевод: Профессиональный многоголосый Продолжительность: 07х ~00:25:00 Режиссёры: Джейкоб Тирни, Тео Ким, Спенсер Мэйби В ролях: Джаред Кисо, Нэйтан Дэйлз, Мишель Майлетт, Эндрю Херр, К. Тревор Уилсон, Дилан Плэйфейр, Тайлер Джонстон, Ивэн Штерн, Лиза Кодрингтон Описание: В центре сюжета - Уэйн и его приятель Дэрил. Они живут на своей ферме в небольшом городке Леттеркенни, что в провинции Онтарио, и намерены защищать свой сельский мир от надвигающейся урбанизации. Всё население Леттеркенни можно условно поделить на три группы: панки, хоккеисты и простые работяги. Все эти группы постоянно не в ладах друг с другом, и зачастую это приводит к нелепым ситуациям и даже к рукоприкладству. Формат: MKV Качество: WEBRip 1080p Видео: MPEG4 AVC / ~3676 kbps / 1920x1080 / 0.074 Бит/(Пиксели*Кадры) / 23.976 fps Аудио 01: AAC, 2 ch, 104 kbps | Русский, MVO | Jaskier | 18+ Аудио 02: E-AC-3, 6 ch, 256 kbps | Original | Субтитры: Английские
[+] MediainfoFormat : Matroska Format version : Version 4 File size : 688 MiB Duration : 23 min 49 s Overall bit rate : 4 038 kb/s Encoded date : UTC 2023-03-25 09:12:11 Writing application : mkvmerge v51.0.0 ('I Wish') 64-bit Writing library : libebml v1.4.0 + libmatroska v1.6.2 Video ID : 1 Format : AVC Format/Info : Advanced Video Codec Format profile : High@L4 Format settings : CABAC / 4 Ref Frames Format settings, CABAC : Yes Format settings, Reference frames : 4 frames Codec ID : V_MPEG4/ISO/AVC Duration : 23 min 48 s Bit rate : 3 676 kb/s Width : 1 920 pixels Height : 1 080 pixels Display aspect ratio : 16:9 Frame rate mode : Constant Frame rate : 23.976 (24000/1001) FPS Color space : YUV Chroma subsampling : 4:2:0 Bit depth : 8 bits Scan type : Progressive Bits/(Pixel*Frame) : 0.074 Stream size : 626 MiB (91%) Default : Yes Forced : No Audio #1 ID : 2 Format : AAC LC Format/Info : Advanced Audio Codec Low Complexity Codec ID : A_AAC-2 Duration : 23 min 49 s Bit rate : 104 kb/s Channel(s) : 2 channels Channel layout : L R Sampling rate : 48.0 kHz Frame rate : 46.875 FPS (1024 SPF) Compression mode : Lossy Stream size : 17.7 MiB (3%) Language : Russian Default : Yes Forced : No Audio #2 ID : 3 Format : E-AC-3 Format/Info : Enhanced AC-3 Commercial name : Dolby Digital Plus Codec ID : A_EAC3 Duration : 23 min 49 s Bit rate mode : Constant Bit rate : 256 kb/s Channel(s) : 6 channels Channel layout : L R C LFE Ls Rs Sampling rate : 48.0 kHz Frame rate : 31.250 FPS (1536 SPF) Compression mode : Lossy Stream size : 43.6 MiB (6%) Language : English Service kind : Complete Main Default : No Forced : No Text ID : 4 Format : UTF-8 Codec ID : S_TEXT/UTF8 Codec ID/Info : UTF-8 Plain Text Duration : 23 min 21 s Bit rate : 131 b/s Frame rate : 0.424 FPS Count of elements : 594 Stream size : 22.5 KiB (0%) Title : English Language : English Default : No Forced : No
[+] Скриншоты

Всего файлов в раздаче: 7 
Letterkenny.S09E01.1080p.mkv687.95 MB
Letterkenny.S09E02.1080p.mkv961.75 MB
Letterkenny.S09E03.1080p.mkv680.94 MB
Letterkenny.S09E04.1080p.mkv612.07 MB
Letterkenny.S09E05.1080p.mkv530.83 MB
Letterkenny.S09E06.1080p.mkv645.90 MB
Letterkenny.S09E07.1080p.mkv565.54 MB

Похожие раздачи по запросу - Леттеркенни
2024-06-03 magnet Леттеркенни / Letterkenny [S12] (2023) WEB-DL 1080p | Jaskier 5.55 GB ↑ 0 ↓ 0
2024-06-02 magnet Леттеркенни / Letterkenny [S10] (2021) WEBRip 1080p | Jaskier 6.01 GB ↑ 0 ↓ 1
2024-06-02 magnet Леттеркенни / Letterkenny [S11] (2022) WEBRip 1080p | Jaskier 5.47 GB ↑ 0 ↓ 0
2024-06-02 magnet Леттеркенни / Letterkenny [S07] (2019) WEBRip 1080p | Jaskier 4.13 GB ↑ 0 ↓ 0
2024-06-02 magnet Леттеркенни / Letterkenny [S08] (2019) WEBRip 1080p | Jaskier 6.30 GB ↑ 0 ↓ 0
2024-05-31 magnet Леттеркенни / Letterkenny [S06] (2018) WEBRip 1080p | Jaskier 6.56 GB ↑ 0 ↓ 0
2024-05-30 magnet Леттеркенни / Letterkenny [S05] (2018) WEBRip 1080p | Jaskier 5.05 GB ↑ 0 ↓ 0

Кто качает (только для создателя раздачи и модераторов): Локальные пиры отсутствуют

Комментарии


Зарегистрируйтесь чтобы добавить комментарий
Торрент клиент
byTorrent - программа для загрузки торрент-файлов.

Скачать byTorrent.exe (1,5 МБ)

Скачать byTorrent.zip (0,6 МБ)

Поддержи torrent.by
российских рублей
(300 российских рублей это 4$)

Обратная связь rss

End game ©