↑↓torrent.by
Поиск
Логин:  Регистрация
Пароль:

Полет длиною в Гималаи / Blutch (2018) WEB-DL 1080p | P1

download Скачать торрент-файл   magnet Магнитная ссылка Размер: 3.43 GB Добавлен: 2024-06-02 11:00
Пиры будут получены из сети DHT
Последний сидер был замечен 2024-06-02 14:22
Полет длиною в Гималаи / Blutch Год выпуска: 2018 Страна: Франция Студия: Nicolas Alliot Жанр: Документальный, путешествия, парапланеризм Продолжительность: 00:51:15 Перевод: Студийный (одноголосый закадровый) Русские субтитры: нет Режиссер: Николя Алльот / Nicolas Alliot Описание: Невероятное путешествие в одиночку на параплане по всей протяжённости Гималаев - через Пакистан, Индию, Непал, до границы с Мьянмой. Четыре месяца приключений, новых встреч, неуверенности, усилий и полётов в сердце гималайских пейзажей. Доп. информация: Тип релиза: WEB-DL 1080p Контейнер: MKV Видео: MPEG-4 AVC Video / 9197 kbps / 1920x1080 / 25.000 fps / 16:9 / High Profile 4 Аудио: Русский: AC3 / 2.0 / 160 kbps / 16-bit / 48 kHz Аудио 2: French: E-AC3 / 2.0 / 224 kbps / 16-bit / 48 kHz Формат субтитров: softsub (SRT)
[+] MediaInfo General Complete name : Blutch.2018.1080p.WEB-DL.Rus.Fre.-BLUEBIRD.mkv Format : Matroska Format version : Version 4 File size : 3.43 GiB Duration : 51 min 15 s Overall bit rate : 9 583 kb/s Frame rate : 25.000 FPS Encoded date : 2024-05-14 18:06:08 UTC Writing application : mkvmerge v72.0.0 ('Minuano (Six-eight)') 64-bit Writing library : libebml v1.4.4 + libmatroska v1.7.1 Video ID : 1 Format : AVC Format/Info : Advanced Video Codec Format profile : High@L4 Format settings : CABAC / 4 Ref Frames Format settings, CABAC : Yes Format settings, Reference : 4 frames Codec ID : V_MPEG4/ISO/AVC Duration : 51 min 15 s Bit rate mode : Constant Bit rate : 9 197 kb/s Nominal bit rate : 10 000 kb/s Width : 1 920 pixels Height : 1 080 pixels Display aspect ratio : 16:9 Frame rate mode : Constant Frame rate : 25.000 FPS Color space : YUV Chroma subsampling : 4:2:0 Bit depth : 8 bits Scan type : Progressive Bits/(Pixel*Frame) : 0.177 Stream size : 3.29 GiB (96%) Title : MPEG-4 AVC Video / 9197 kbps / 1920x1080 / 25.000 fps / 16:9 / High Profile 4 Language : French Default : Yes Forced : No Color range : Limited Color primaries : BT.709 Transfer characteristics : BT.709 Matrix coefficients : BT.709 Audio #1 ID : 2 Format : AC-3 Format/Info : Audio Coding 3 Commercial name : Dolby Digital Codec ID : A_AC3 Duration : 51 min 15 s Bit rate mode : Constant Bit rate : 160 kb/s Channel(s) : 2 channels Channel layout : L R Sampling rate : 48.0 kHz Frame rate : 31.250 FPS (1536 SPF) Compression mode : Lossy Stream size : 58.7 MiB (2%) Title : rus / AC3 / 2.0 / 160 kbps / 16-bit / 48 kHz Language : Russian Service kind : Complete Main Default : Yes Forced : Yes Audio #2 ID : 3 Format : E-AC-3 Format/Info : Enhanced AC-3 Commercial name : Dolby Digital Plus Codec ID : A_EAC3 Duration : 51 min 15 s Bit rate mode : Constant Bit rate : 224 kb/s Channel(s) : 2 channels Channel layout : L R Sampling rate : 48.0 kHz Frame rate : 31.250 FPS (1536 SPF) Compression mode : Lossy Stream size : 82.1 MiB (2%) Title : eng / E-AC3 / 2.0 / 224 kbps / 16-bit / 48 kHz Language : French Service kind : Complete Main Default : No Forced : No Text ID : 4 Format : UTF-8 Codec ID : S_TEXT/UTF8 Codec ID/Info : UTF-8 Plain Text Duration : 49 min 43 s Bit rate : 35 b/s Frame rate : 0.134 FPS Count of elements : 399 Stream size : 13.0 KiB (0%) Title : eng / SRT Language : English Default : No Forced : No
[+] Скриншоты

Всего файлов в раздаче: 1 
Blutch.2018.1080p.WEB-DL.Rus.Fre.[sub.eng]-BLUEBIRD.mkv3.43 GB

Похожие раздачи по запросу - Полет
2024-05-31 magnet Воры и проститутки. Приз - полет в космос (2004) DVDRip 1.37 GB ↑ 0 ↓ 0

Комментарии


Зарегистрируйтесь чтобы добавить комментарий
Торрент клиент
byTorrent - программа для загрузки торрент-файлов.

Скачать byTorrent.exe (1,5 МБ)

Скачать byTorrent.zip (0,6 МБ)

Поддержи torrent.by
российских рублей
(300 российских рублей это 4$)

Обратная связь rss

End game ©