↑↓torrent.by
Поиск
Логин:  Регистрация
Пароль:

Легенда о горе Кошачьи когти / The Legend of Catclaws Mountain (2024) WEB-DL 1080p от New-Team | P | TVShows

download Скачать торрент-файл   magnet Магнитная ссылка Размер: 7.65 GB Добавлен: 2024-06-02 11:00
Пиры будут получены из сети DHT
Последний сидер был замечен 2024-06-05 12:32
Легенда о горе Кошачьи когти / The Legend of Catclaws Mountain Год выпуска: 2024 Выпущено: США / Magic Arrow Films Жанр: семейный Режиссер: Ричи Грир / Ritchie Greer В ролях: Хейден Хишоу, Роберт Дэви, Ди Уоллес, Джеймс Дювал, Рикко Росс, Илья Волох, Дон Скрибнер, Джереми Бенжамин, Даниэль де Велдон, Каденс Гоблирш, Брайан Зувич, Бенжамин Уиднер, Джозеф Кайлер, Дилан Моджо, Эмбер Вегнер, Джозеф Лопес, Шале Лизетте Брэннан, Ксандер Бейли, Робби Данзи, Боб Ли Дайсинджер, Серра Анджела Валлентайн, Мэдди Ротоло О фильме: Минди отправляется в захватывающее путешествие на поиски потерянной пони, обладающей магическими силами. Вместе с друзьями девушка открывает тайну сокровищ горы Кошачьи когти. Продолжительность: 01:44:20 Перевод: Профессиональный (многоголосый, закадровый) | TVShows (Thx. SunOfABeach) Субтитры: английские Раздача от: Автор релиза: JNS82. Формат: MKV Качество: WEB-DL 1080p | AMZN Видео: MPEG-4 AVC, (16:9), 1920x1080, 9470 Кбит/с, 23,976 fps Аудио #1: 48 kHz, AC3 Dolby Digital, 3/2 (L,C,R,l,r) + LFE ch, ~ 384 kbps | RUS | Аудио #2: 48 kHz, E-AC3 Dolby Digital, 3/2 (L,C,R,l,r) + LFE ch, ~ 640 kbps | ENG |
[+] MediaInfoОбщее Уникальный идентификатор : 284220872977995799399451214170835161348 (0xD5D2F2F23DF6D61F33CE27C5B77C9104) Полное имя : D:TorrentsThe.Legend.of.Catclaws.Mountain.2024.1080p.AMZN_от New-Team.mkv Формат : Matroska Версия формата : Version 4 Размер файла : 7,65 Гбайт Продолжительность : 1 ч. 44 м. Общий поток : 10,5 Мбит/сек Название фильма : The.Legend.of.Catclaws.Mountain.2024.1080p.AMZN_от New-Team Дата кодирования : UTC 2024-06-02 04:26:06 Программа кодирования : mkvmerge v79.0 ('Funeral Pyres') 64-bit Библиотека кодирования : libebml v1.4.4 + libmatroska v1.7.1 Видео Идентификатор : 1 Формат : AVC Формат/Информация : Advanced Video Codec Профиль формата : High@L4 Настройки формата : CABAC / 4 Ref Frames Параметр CABAC формата : Да Параметр RefFrames формата : 4 кадра Идентификатор кодека : V_MPEG4/ISO/AVC Продолжительность : 1 ч. 44 м. Вид битрейта : Постоянный Битрейт : 9 470 Кбит/сек Номинальный битрейт : 10 000 Кбит/сек Ширина : 1 920 пикселей Высота : 1 080 пикселей Соотношение сторон : 16:9 Режим частоты кадров : Постоянный Частота кадров : 23,976 (24000/1001) кадра/сек Цветовое пространство : YUV Субдискретизация насыщенности : 4:2:0 Битовая глубина : 8 бит Тип развёртки : Прогрессивная Бит/(Пиксели*Кадры) : 0.190 Размер потока : 6,90 Гбайт (90%) Язык : English Default : Да Forced : Нет Цветовой диапазон : Limited Основные цвета : BT.709 Характеристики трансфера : BT.709 Коэффициенты матрицы : BT.709 Аудио #1 Идентификатор : 2 Формат : AC-3 Формат/Информация : Audio Coding 3 Коммерческое название : Dolby Digital Идентификатор кодека : A_AC3 Продолжительность : 1 ч. 44 м. Вид битрейта : Постоянный Битрейт : 384 Кбит/сек Каналы : 6 каналов Channel layout : L R C LFE Ls Rs Частота : 48,0 КГц Частота кадров : 31,250 кадров/сек (1536 SPF) Метод сжатия : С потерями Размер потока : 287 Мбайт (4%) Заголовок : MVO - TVShows Язык : Russian Service kind : Complete Main Default : Да Forced : Нет Аудио #2 Идентификатор : 3 Формат : E-AC-3 Формат/Информация : Enhanced AC-3 Коммерческое название : Dolby Digital Plus Идентификатор кодека : A_EAC3 Продолжительность : 1 ч. 44 м. Вид битрейта : Постоянный Битрейт : 640 Кбит/сек Каналы : 6 каналов Channel layout : L R C LFE Ls Rs Частота : 48,0 КГц Частота кадров : 31,250 кадров/сек (1536 SPF) Метод сжатия : С потерями Размер потока : 478 Мбайт (6%) Заголовок : Original Язык : English Service kind : Complete Main Default : Нет Forced : Нет Текст #1 Идентификатор : 4 Формат : UTF-8 Идентификатор кодека : S_TEXT/UTF8 Идентификатор кодека/Информация : UTF-8 Plain Text Продолжительность : 1 ч. 40 м. Битрейт : 63 бит/сек Count of elements : 1547 Размер потока : 47,1 Кбайт (0%) Заголовок : Язык : English Default : Нет Forced : Нет Текст #2 Идентификатор : 5 Формат : UTF-8 Идентификатор кодека : S_TEXT/UTF8 Идентификатор кодека/Информация : UTF-8 Plain Text Продолжительность : 1 ч. 44 м. Битрейт : 71 бит/сек Count of elements : 1831 Размер потока : 54,7 Кбайт (0%) Заголовок : Язык : English Default : Нет Forced : Нет Меню 00:00:00.000 : en:Scene 01 01:41:39.541 : en:End Credits

Всего файлов в раздаче: 1 
The.Legend.of.Catclaws.Mountain.2024.1080p.AMZN_от New-Team.mkv7.65 GB

Похожие раздачи по запросу - Легенда
Вчера magnet Прощай, Легенда [01x04] [эфир от 16.06] (2024) WEBRip 1080p от DolgOFF 1.10 GB ↑ 0 ↓ 0
2024-06-03 magnet Легенда о горе Кошачьи когти / The Legend of Catclaws Mountain (2024) WEB-DLRip-AVC | P | TVShows 2.19 GB ↑ 7 ↓ 1
2024-06-03 magnet Легенда о Коловрате (2017) BDRip-AVC от ExKinoRay | Лицензия 2.63 GB ↑ 0 ↓ 0
2024-06-03 magnet Элиан Тарс - Хозяин восьми морей 3, Бессмертная Легенда (2024) МР3 257.45 MB ↑ 0 ↓ 0
2024-05-29 magnet Аватар: Легенда об Аанге / Avatar: The Last Airbender [S01] (2024) WEB-DL 1080p | HDrezka Studio, LostFilm, Jaskier, TVShows, NewComers, Red Head Sound 30.46 GB ↑ 0 ↓ 0
2024-05-29 magnet Аватар: Легенда об Аанге / Avatar: The Last Airbender [S01] (2024) WEB-DLRip | LostFilm 6.06 GB ↑ 0 ↓ 1
2024-05-25 magnet Легенда О Солнце - Война (2024) FLAC 308.23 MB ↑ 0 ↓ 0

Комментарии


Зарегистрируйтесь чтобы добавить комментарий
Торрент клиент
byTorrent - программа для загрузки торрент-файлов.

Скачать byTorrent.exe (1,5 МБ)

Скачать byTorrent.zip (0,6 МБ)

Поддержи torrent.by
российских рублей
(300 российских рублей это 4$)

Обратная связь rss

End game ©