↑↓torrent.by
Поиск
Логин:  Регистрация
Пароль:

Истории большой страны [01x01-16] (2022) WEBRip 1080p

download Скачать торрент-файл   magnet Магнитная ссылка Размер: 28.36 GB Добавлен: 2024-06-02 17:00
Пиры будут получены из сети DHT
Последний сидер был замечен 2024-06-03 18:04
Оригинальное название: Истории большой страны Год выхода: 2023 Жанр: Комедия, скетчком Режиссер: Алёна Корчагина (II) В ролях: Нонна Гришаева, Максим Лагашкин, Ольга Тумайкина, Алексей Маклаков, Михаил Полицеймако, Станислав Дужников, Алина Алексеева (II), Георгий Дронов, Татьяна Орлова, Юрий Ицков, Ёла Санько, Мария Кравченко, Максим Киселев (II), Светлана Пермякова, Арина Постникова и др. Описание сериала: "Истории большой страны" - смешные и остроумные истории из нашей повседневной жизни в исполнении любимых актеров в образах персонажей, в которых каждый узнает своего соседа, начальника, мужа, жену или коллегу. "Истории большой страны" – это короткие, но весьма уморительные скетчи из повседневной жизни, в которых может оказаться каждый из нас: например девушка приезжает в автосервис в надежде скрыть от мужа царапины на помятой машине; жена в супермаркете вырубает броском консервов собственного мужа; директриса, спасаясь от школьной проверки, покоряет высоту спортзала на канате; начальник меняет команду, взяв за ориентир... габариты подчиненных; пенсионерка устраивает тест на скорость городским спецслужбам; риелтор демонстрирует клиентам достоинства звукоизоляции с помощью пугача, а сотрудники ДПС получают чистосердечное признание нетрезвого водителя весьма нетривиальным артистичным способом... Страна: Россия Студия: Comedy Club Production Продолжительность: ~00:50:00 Перевод: Не требуется Язык: Русский Субтитры: Русские Файл Формат: MKV Качество: WEBRip (1080p) Видео: 1920x1080 (16:9), 25 fps, AVC (х264), High@L4, 5038 kbps avg, 0.097 bit/pixel Аудио RUS: 48 kHz, AC3, 2/0 (L,R) ch, ~192 kbps avg
[+] Список серийВыпуск 01 (19.05.2023) Выпуск 02 (26.05.2023) Выпуск 03 (02.06.2023) Выпуск 04 (09.06.2023) Выпуск 05 (16.06.2023) Выпуск 06 (22.09.2023) Выпуск 07 (06.10.2023) Выпуск 08 (20.10.2023) Выпуск 09 (27.10.2023) Выпуск 10 (03.11.2023) Выпуск 11 (17.11.2023) Выпуск 12 (01.03.2024) Выпуск 13 (15.03.2024) Выпуск 14 (29.03.2024) Выпуск 15 (24.05.2024) Выпуск 16 (31.05.2024)
[+] MediaInfoОбщее Уникальный идентификатор : 6826466539840239261223753875487989813 (0x522BAC92F6DCBE1AF8B68DC99E82035) Полное имя : Истории большой страны.S01E01.2022.WEB-DL.1080p.mkv Формат : Matroska Версия формата : Version 4 Размер файла : 1,79 Гбайт Продолжительность : 48 м. 57 с. Режим общего битрейта : Переменный Общий поток : 5 232 Кбит/сек Частота кадров : 25,000 кадров/сек Дата кодирования : 2023-05-20 05:47:48 UTC Программа кодирования : mkvmerge v68.0.0 ('The Curtain') 64-bit Библиотека кодирования : libebml v1.4.2 + libmatroska v1.6.4 Видео Идентификатор : 1 Формат : AVC Формат/Информация : Advanced Video Codec Профиль формата : High@L4 Настройки формата : CABAC / 2 Ref Frames Параметр CABAC формата : Да Параметр RefFrames формата : 2 кадра Идентификатор кодека : V_MPEG4/ISO/AVC Продолжительность : 48 м. 57 с. Вид битрейта : Переменный Битрейт : 5 038 Кбит/сек Максимальный битрейт : 8 000 Кбит/сек Ширина : 1 920 пикселей Высота : 1 080 пикселей Соотношение сторон : 16:9 Режим частоты кадров : Постоянный Частота кадров : 25,000 кадров/сек Цветовое пространство : YUV Субдискретизация насыщенности : 4:2:0 Битовая глубина : 8 бит Тип развёртки : Прогрессивная Бит/(Пиксели*Кадры) : 0.097 Размер потока : 1,72 Гбайт (96%) Default : Да Forced : Нет Аудио Идентификатор : 2 Формат : AC-3 Формат/Информация : Audio Coding 3 Коммерческое название : Dolby Digital Идентификатор кодека : A_AC3 Продолжительность : 48 м. 57 с. Вид битрейта : Постоянный Битрейт : 192 Кбит/сек Каналы : 2 канала Channel layout : L R Частота : 48,0 КГц Частота кадров : 31,250 кадров/сек (1536 SPF) Метод сжатия : С потерями Размер потока : 67,2 Мбайт (4%) Default : Да Forced : Нет Текст Идентификатор : 3 Формат : UTF-8 Идентификатор кодека : S_TEXT/UTF8 Идентификатор кодека/Информация : UTF-8 Plain Text Продолжительность : 47 м. 47 с. Битрейт : 108 бит/сек Частота кадров : 0,219 кадр/сек Count of elements : 627 Размер потока : 38,0 Кбайт (0%) Default : Нет Forced : Нет
[+] Скриншоты

Всего файлов в раздаче: 16 
Истории большой страны.S01E01.2022.WEB-DL.1080p.mkv1.79 GB
Истории большой страны.S01E02.2022.WEB-DL.1080p.mkv1.78 GB
Истории большой страны.S01E03.2022.WEB-DL.1080p.mkv1.75 GB
Истории большой страны.S01E04.2022.WEB-DL.1080p.mkv1.78 GB
Истории большой страны.S01E05.2022.WEB-DL.1080p.mkv1.77 GB
Истории большой страны.S01E06.2022.WEB-DL.1080p.mkv1.76 GB
Истории большой страны.S01E07.2022.WEB-DL.1080p.mkv1.76 GB
Истории большой страны.S01E08.2022.WEB-DL.1080p.mkv1.78 GB
Истории большой страны.S01E09.2022.WEB-DL.1080p.mkv1.79 GB
Истории большой страны.S01E10.2022.WEB-DL.1080p.mkv1.78 GB
Показать все файлы

Похожие раздачи по запросу - Истории
Вчера magnet Истории большой страны [01-18] (2022) WEBRip 720p от Files-x 12.21 GB ↑ 0 ↓ 0
2024-06-17 magnet Серия - «Загадки истории с Олегом Шишкиным» [3 книги] (2018-2022) FB2 52.17 MB ↑ 0 ↓ 0
2024-06-14 magnet Затерянные земли 9: Истории о Первом Братстве / Lost Lands 9: Stories of the First Brotherhood CE (2024) PC 928.38 MB ↑ 0 ↓ 0
2024-06-14 magnet Легендарные предания 3: Истории / Legendary Tales 3: Stories CE (2024) PC 1.58 GB ↑ 0 ↓ 0
2024-06-11 magnet Истории большой страны [01x01-17] (2022-2024) WEBRip-AVC от Generalfilm | КПК 3.67 GB ↑ 0 ↓ 0
2024-06-10 magnet Серия - «Великолепные детективные истории» [67 книг] (2018-2024) FB2 81.22 MB ↑ 0 ↓ 0
2024-06-03 magnet Истории большой страны [01-17] (2022) WEBRip 720p от Files-x 11.53 GB ↑ 0 ↓ 0

Комментарии


Зарегистрируйтесь чтобы добавить комментарий
Торрент клиент
byTorrent - программа для загрузки торрент-файлов.

Скачать byTorrent.exe (1,5 МБ)

Скачать byTorrent.zip (0,6 МБ)

Поддержи torrent.by
российских рублей
(300 российских рублей это 4$)

Обратная связь rss

End game ©