↑↓torrent.by
Поиск
Логин:  Регистрация
Пароль:

Erasure - Cowboy [Expanded Edition, 24Bit, Hi-Res] (1997/2024) FLAC

download Скачать торрент-файл   magnet Магнитная ссылка Размер: 1.33 GB Добавлен: 2024-06-02 17:00
Пиры будут получены из сети DHT
Последний сидер был замечен 2024-06-04 22:47
Erasure - Cowboy (1997) Expanded Edition, 2024, BMG Company Жанр: Synthpop, New-Wave Издание: 2024 Mute Records Ltd., a BMG Company Источник: ссылка Продолжительность: 01:57:11 Кодек: FLAC 16,24/44.1 Битрейт: Lossless|WEB-DL Тип рипа: tracks
[+] Треклист: Треклист: 01. Rain (2024 Remaster) 02. Worlds On Fire (2024 Remaster) 03. Reach Out (2024 Remaster) 04. In My Arms (2024 Remaster) 05. Don't Say Your Love Is Killing Me (2024 Remaster) 06. Precious (2024 Remaster) 07. Treasure (2024 Remaster) 08. Boy (2024 Remaster) 09. How Can I Say (2024 Remaster) 10. Save Me Darling (2024 Remaster) 11. Love Affair (2024 Remaster) 12. Rain (Al Stone Mix; 2024 Remaster) 13. Rapture (Extended Version; 2024 Remaster) 14. In the Name of the Heart (2024 Remaster) 15. First Contact (Vocal Mix; 2024 Remaster) 16. Reach Out (Alternative Lyrics; 2024 Remaster) 17. In My Arms (Acoustic Version; 2024 Remaster) 18. Magic Moments (Alternative Mix; 2024 Remaster) 19. My Love (2024 Remaster) 20. Earth (2024 Remaster) 21. Worlds on Fire (Demo Version; 2024 Remaster) 22. In My Arms (Love To Infinity Stratomaster Mix;US Edit; 2024 Remaster) 23. Don't Say Your Love Is Killing Me (TELEX Remix; 2024 Remaster) 24. Rain (Blancmange Remix; 2024 Remaster) 25. Don't Say Your Love Is Killing Me (Jon Pleased Wimmin Flashbox Vox) (2024 Remaster) 26. In My Arms (Crumbling Down Extended Instrumental Remix; 2024 Remaster) 27. Rain (Stealing Sheep Remix) 28. Heart of Glass (Live in Oxford; 2024 Remaster)
[+] Отчёт Замер динамического диапазона: foobar2000 2.1.5 / Замер динамического диапазона (DR) 1.1.1 Дата отчёта: 2024-06-02 13:48:34 -------------------------------------------------------------------------------- Анализ: Erasure / Cowboy (2024 Expanded Edition) -------------------------------------------------------------------------------- DR Пики RMS Продолжительность трека -------------------------------------------------------------------------------- DR5 -0.50 дБ -7.53 дБ 4:11 01-Rain (2024 Remaster) DR6 -0.50 дБ -8.87 дБ 3:37 02-Worlds On Fire (2024 Remaster) DR6 -0.50 дБ -8.40 дБ 3:47 03-Reach Out (2024 Remaster) DR6 -0.50 дБ -8.25 дБ 3:36 04-In My Arms (2024 Remaster) DR6 -0.50 дБ -8.34 дБ 3:47 05-Don't Say Your Love Is Killing Me (2024 Remaster) DR6 -0.50 дБ -8.29 дБ 3:32 06-Precious (2024 Remaster) DR6 -0.50 дБ -9.03 дБ 3:05 07-Treasure (2024 Remaster) DR6 -0.50 дБ -8.41 дБ 3:42 08-Boy (2024 Remaster) DR6 -0.50 дБ -8.73 дБ 3:17 09-How Can I Say (2024 Remaster) DR5 -0.50 дБ -7.63 дБ 4:01 10-Save Me Darling (2024 Remaster) DR7 -0.50 дБ -10.67 дБ 3:37 11-Love Affair (2024 Remaster) DR5 -0.50 дБ -6.67 дБ 4:09 12-Rain (Al Stone Mix; 2024 Remaster) DR5 -0.50 дБ -7.73 дБ 6:32 13-Rapture (Extended Version; 2024 Remaster) DR4 -0.50 дБ -6.80 дБ 3:50 14-In the Name of the Heart (2024 Remaster) DR6 -0.50 дБ -7.85 дБ 6:04 15-First Contact (Vocal Mix; 2024 Remaster) DR6 -0.50 дБ -8.53 дБ 3:47 16-Reach Out (Alternative Lyrics; 2024 Remaster) DR8 -0.50 дБ -11.72 дБ 3:06 17-In My Arms (Acoustic Version; 2024 Remaster) DR7 -0.50 дБ -9.69 дБ 2:42 18-Magic Moments (Alternative Mix; 2024 Remaster) DR6 -0.50 дБ -7.20 дБ 2:30 19-My Love (2024 Remaster) DR7 -0.50 дБ -8.90 дБ 2:59 20-Earth (2024 Remaster) -------------------------------------------------------------------------------- Количество треков: 20 Реальные значения DR: DR6 Частота: 44100 Гц Каналов: 2 Разрядность: 24 Битрейт: 1588 кбит/с Кодек: FLAC ================================================================================ -------------------------------------------------------------------------------- Статистика для: 21-Worlds on Fire (Demo Version; 2024 Remaster) Количество сэмплов: 8961268 Продолжительность: 3:23 -------------------------------------------------------------------------------- Левый Правый Пики: -0.50 дБ --- -0.50 дБ Средний RMS: -8.20 дБ --- -8.07 дБ DR канала: 6.12 дБ --- 5.98 дБ -------------------------------------------------------------------------------- Реальные значения DR: DR6 Частота: 44100 Гц Каналов: 2 Разрядность: 16 Битрейт: 776 кбит/с Кодек: FLAC ================================================================================ -------------------------------------------------------------------------------- Анализ: Erasure / Cowboy (2024 Expanded Edition) -------------------------------------------------------------------------------- DR Пики RMS Продолжительность трека -------------------------------------------------------------------------------- DR5 -0.50 дБ -7.38 дБ 4:18 22-In My Arms (Love To Infinity Stratomaster Mix;US Edit; 2024 Remaster) DR5 -0.50 дБ -7.45 дБ 3:27 23-Don't Say Your Love Is Killing Me (TELEX Remix; 2024 Remaster) DR6 -0.50 дБ -8.28 дБ 5:18 24-Rain (Blancmange Remix; 2024 Remaster) DR6 -0.50 дБ -7.89 дБ 6:44 25-Don't Say Your Love Is Killing Me (Jon Pleased Wimmin Flashbox Vox) (2024 Remaster) DR5 -0.50 дБ -7.58 дБ 8:26 26-In My Arms (Crumbling Down Extended Instrumental Remix; 2024 Remaster) DR6 -0.50 дБ -8.43 дБ 4:41 27-Rain (Stealing Sheep Remix) DR5 -0.50 дБ -6.19 дБ 4:57 28-Heart of Glass (Live in Oxford; 2024 Remaster) -------------------------------------------------------------------------------- Количество треков: 7 Реальные значения DR: DR6 Частота: 44100 Гц Каналов: 2 Разрядность: 24 Битрейт: 1684 кбит/с Кодек: FLAC ================================================================================
[+] Mi:Код:
Format : FLAC Format/Info : Free Lossless Audio Codec File size : 52.5 MiB Duration : 4 min 11 s Overall bit rate mode : Variable Overall bit rate : 1 753 kb/s Album : Cowboy (2024 Expanded Edition) Album/Performer : Erasure Part : 1 Part/Total : 1 Track name : Rain (2024 Remaster) Track name/Position : 1 Track name/Total : 28 Performer : Erasure Composer : Andy Bell & Vince Clarke Producer : Mute, a BMG Company Label : Mute, a BMG Company Genre : Synthpop, New Wave Recorded date : 2024-05-31 ISRC : GB5KW2301005 Copyright : © 2024 Mute Records Ltd., a BMG Company ℗ 2024 Mute Records Ltd., a BMG Company Cover : Yes Cover type : Cover (front) Cover MIME : image/jpeg Comment : https://www.qobuz.com/gb-en/album/cowboy-erasure/z4jljp7macvec PRODUCER : GARETH JONES & Neil McLellan INVOLVEDPEOPLE : Andy Bell, Composer, Vocals, Writer - Vince Clarke, Composer, Writer, Instruments - Erasure, Performance, MainArtist - GARETH JONES, Producer - Neil McLellan, Producer - Phil Kinrade, Engineer ITUNESADVISORY : 0 MEDIATYPE : album UPC : 4050538919400 URL : https://www.qobuz.com/fr-fr/album/cowboy-erasure/z4jljp7macvec Audio Format : FLAC Format/Info : Free Lossless Audio Codec Duration : 4 min 11 s Bit rate mode : Variable Bit rate : 1 751 kb/s Channel(s) : 2 channels Channel layout : L R Sampling rate : 44.1 kHz Bit depth : 24 bits Compression mode : Lossless Stream size : 52.4 MiB (100%) MD5 of the unencoded content : 00000000000000000000000000000000 General Complete name : C:Deemix MusicErasure - 1997 - Cowboy (2024 Expanded Edition) FLAC (24bit-44.1kHz)�2 - Worlds On Fire (2024 Remaster).flac Format : FLAC Format/Info : Free Lossless Audio Codec File size : 44.9 MiB Duration : 3 min 37 s Overall bit rate mode : Variable Overall bit rate : 1 734 kb/s Album : Cowboy (2024 Expanded Edition) Album/Performer : Erasure Part : 1 Part/Total : 1 Track name : Worlds On Fire (2024 Remaster) Track name/Position : 2 Track name/Total : 28 Performer : Erasure Composer : Andy Bell & Vince Clarke Producer : Mute, a BMG Company Label : Mute, a BMG Company Genre : Synthpop, New Wave Recorded date : 2024-05-31 ISRC : GB5KW2301006 Copyright : © 2024 Mute Records Ltd., a BMG Company ℗ 2024 Mute Records Ltd., a BMG Company Cover : Yes Cover type : Cover (front) Cover MIME : image/jpeg Comment : 2024 Mute Records Ltd., a BMG Company PRODUCER : GARETH JONES & Neil McLellan INVOLVEDPEOPLE : Andy Bell, Composer, Vocals, Writer - Vince Clarke, Composer, Writer, Instruments - Burt Bacharach, Writer - David, Writer - Erasure, Performance, MainArtist - GARETH JONES, Producer - Neil McLellan, Producer - Phil Kinrade, Engineer ITUNESADVISORY : 0 MEDIATYPE : album UPC : 4050538919400 URL : https://www.qobuz.com/fr-fr/album/cowboy-erasure/z4jljp7macvec Audio Format : FLAC Format/Info : Free Lossless Audio Codec Duration : 3 min 37 s Bit rate mode : Variable Bit rate : 1 731 kb/s Channel(s) : 2 channels Channel layout : L R Sampling rate : 44.1 kHz Bit depth : 24 bits Compression mode : Lossless Stream size : 44.8 MiB (100%) MD5 of the unencoded content : 00000000000000000000000000000000 General Complete name : C:Deemix MusicErasure - 1997 - Cowboy (2024 Expanded Edition) FLAC (24bit-44.1kHz)�3 - Reach Out (2024 Remaster).flac Format : FLAC Format/Info : Free Lossless Audio Codec File size : 46.2 MiB Duration : 3 min 47 s Overall bit rate mode : Variable Overall bit rate : 1 705 kb/s Album : Cowboy (2024 Expanded Edition) Album/Performer : Erasure Part : 1 Part/Total : 1 Track name : Reach Out (2024 Remaster) Track name/Position : 3 Track name/Total : 28 Performer : Erasure Composer : Andy Bell & Vince Clarke Producer : Mute, a BMG Company Label : Mute, a BMG Company Genre : Synthpop, New Wave Recorded date : 2024-05-31 ISRC : GB5KW2301007 Copyright : © 2024 Mute Records Ltd., a BMG Company ℗ 2024 Mute Records Ltd., a BMG Company Cover : Yes Cover type : Cover (front) Cover MIME : image/jpeg Comment : 1997 PRODUCER : GARETH JONES & Neil McLellan INVOLVEDPEOPLE : Andy Bell, Composer, Vocals, Writer - Vince Clarke, Composer, Writer, Instruments - Burt Bacharach, Writer - David, Writer - Erasure, Performance, MainArtist - GARETH JONES, Producer - Neil McLellan, Producer - Phil Kinrade, Engineer ITUNESADVISORY : 0 MEDIATYPE : album UPC : 4050538919400 URL : https://www.qobuz.com/fr-fr/album/cowboy-erasure/z4jljp7macvec Audio Format : FLAC Format/Info : Free Lossless Audio Codec Duration : 3 min 47 s Bit rate mode : Variable Bit rate : 1 702 kb/s Channel(s) : 2 channels Channel layout : L R Sampling rate : 44.1 kHz Bit depth : 24 bits Compression mode : Lossless Stream size : 46.1 MiB (100%) MD5 of the unencoded content : 00000000000000000000000000000000 General Complete name : C:Deemix MusicErasure - 1997 - Cowboy (2024 Expanded Edition) FLAC (24bit-44.1kHz)�4 - In My Arms (2024 Remaster).flac Format : FLAC Format/Info : Free Lossless Audio Codec File size : 43.8 MiB Duration : 3 min 36 s Overall bit rate mode : Variable Overall bit rate : 1 701 kb/s Album : Cowboy (2024 Expanded Edition) Album/Performer : Erasure Part : 1 Part/Total : 1 Track name : In My Arms (2024 Remaster) Track name/Position : 4 Track name/Total : 28 Performer : Erasure Composer : Andy Bell & Vince Clarke Producer : Mute, a BMG Company Label : Mute, a BMG Company Genre : Synthpop, New Wave Recorded date : 2024-05-31 ISRC : GB5KW2301008 Copyright : © 2024 Mute Records Ltd., a BMG Company ℗ 2024 Mute Records Ltd., a BMG Company Cover : Yes Cover type : Cover (front) Cover MIME : image/jpeg PRODUCER : GARETH JONES & Neil McLellan INVOLVEDPEOPLE : Andy Bell, Composer, Vocals, Writer - Vince Clarke, Composer, Writer, Instruments - Erasure, MainArtist - GARETH JONES, Producer - Neil McLellan, Producer - Phil Kinrade, Engineer ITUNESADVISORY : 0 MEDIATYPE : album UPC : 4050538919400 URL : https://www.qobuz.com/fr-fr/album/cowboy-erasure/z4jljp7macvec Audio Format : FLAC Format/Info : Free Lossless Audio Codec Duration : 3 min 36 s Bit rate mode : Variable Bit rate : 1 698 kb/s Channel(s) : 2 channels Channel layout : L R Sampling rate : 44.1 kHz Bit depth : 24 bits Compression mode : Lossless Stream size : 43.8 MiB (100%) MD5 of the unencoded content : 00000000000000000000000000000000 General Complete name : C:Deemix MusicErasure - 1997 - Cowboy (2024 Expanded Edition) FLAC (24bit-44.1kHz)�5 - Don't Say Your Love Is Killing Me (2024 Remaster).flac Format : FLAC Format/Info : Free Lossless Audio Codec File size : 47.5 MiB Duration : 3 min 46 s Overall bit rate mode : Variable Overall bit rate : 1 756 kb/s Album : Cowboy (2024 Expanded Edition) Album/Performer : Erasure Part : 1 Part/Total : 1 Track name : Don't Say Your Love Is Killing Me (2024 Remaster) Track name/Position : 5 Track name/Total : 28 Performer : Erasure Composer : Andy Bell & Vince Clarke Producer : Mute, a BMG Company Label : Mute, a BMG Company Genre : Synthpop, New Wave Recorded date : 2024-05-31 ISRC : GB5KW2301009 Copyright : © 2024 Mute Records Ltd., a BMG Company ℗ 2024 Mute Records Ltd., a BMG Company Cover : Yes Cover type : Cover (front) Cover MIME : image/jpeg PRODUCER : GARETH JONES & Neil McLellan INVOLVEDPEOPLE : Andy Bell, Composer, Vocals, Writer - Vince Clarke, Composer, Writer, Instruments - Erasure, Performance, MainArtist - GARETH JONES, Producer - Neil McLellan, Producer - Phil Kinrade, Engineer ITUNESADVISORY : 0 MEDIATYPE : album UPC : 4050538919400 URL : https://www.qobuz.com/fr-fr/album/cowboy-erasure/z4jljp7macvec Audio Format : FLAC Format/Info : Free Lossless Audio Codec Duration : 3 min 46 s Bit rate mode : Variable Bit rate : 1 753 kb/s Channel(s) : 2 channels Channel layout : L R Sampling rate : 44.1 kHz Bit depth : 24 bits Compression mode : Lossless Stream size : 47.4 MiB (100%) MD5 of the unencoded content : 00000000000000000000000000000000 General Complete name : C:Deemix MusicErasure - 1997 - Cowboy (2024 Expanded Edition) FLAC (24bit-44.1kHz)�6 - Precious (2024 Remaster).flac Format : FLAC Format/Info : Free Lossless Audio Codec File size : 43.2 MiB Duration : 3 min 31 s Overall bit rate mode : Variable Overall bit rate : 1 711 kb/s Album : Cowboy (2024 Expanded Edition) Album/Performer : Erasure Part : 1 Part/Total : 1 Track name : Precious (2024 Remaster) Track name/Position : 6 Track name/Total : 28 Performer : Erasure Composer : Andy Bell & Vince Clarke Producer : Mute, a BMG Company Label : Mute, a BMG Company Genre : Synthpop, New Wave Recorded date : 2024-05-31 ISRC : GB5KW2301010 Copyright : © 2024 Mute Records Ltd., a BMG Company ℗ 2024 Mute Records Ltd., a BMG Company Cover : Yes Cover type : Cover (front) Cover MIME : image/jpeg PRODUCER : GARETH JONES & Neil McLellan INVOLVEDPEOPLE : Andy Bell, Composer, Vocals, Writer - Vince Clarke, Composer, Writer, Instruments - Burt Bacharach, Writer - David, Writer - Erasure, Performance, MainArtist - GARETH JONES, Producer - Neil McLellan, Producer - Phil Kinrade, Engineer ITUNESADVISORY : 0 MEDIATYPE : album UPC : 4050538919400 URL : https://www.qobuz.com/fr-fr/album/cowboy-erasure/z4jljp7macvec Audio Format : FLAC Format/Info : Free Lossless Audio Codec Duration : 3 min 31 s Bit rate mode : Variable Bit rate : 1 708 kb/s Channel(s) : 2 channels Channel layout : L R Sampling rate : 44.1 kHz Bit depth : 24 bits Compression mode : Lossless Stream size : 43.1 MiB (100%) MD5 of the unencoded content : 00000000000000000000000000000000 General Complete name : C:Deemix MusicErasure - 1997 - Cowboy (2024 Expanded Edition) FLAC (24bit-44.1kHz)�7 - Treasure (2024 Remaster).flac Format : FLAC Format/Info : Free Lossless Audio Codec File size : 37.7 MiB Duration : 3 min 5 s Overall bit rate mode : Variable Overall bit rate : 1 703 kb/s Album : Cowboy (2024 Expanded Edition) Album/Performer : Erasure Part : 1 Part/Total : 1 Track name : Treasure (2024 Remaster) Track name/Position : 7 Track name/Total : 28 Performer : Erasure Composer : Andy Bell & Vince Clarke Producer : Mute, a BMG Company Label : Mute, a BMG Company Genre : Synthpop, New Wave Recorded date : 2024-05-31 ISRC : GB5KW2301011 Copyright : © 2024 Mute Records Ltd., a BMG Company ℗ 2024 Mute Records Ltd., a BMG Company Cover : Yes Cover type : Cover (front) Cover MIME : image/jpeg PRODUCER : GARETH JONES & Neil McLellan INVOLVEDPEOPLE : Andy Bell, Composer, Vocals, Writer - Vince Clarke, Composer, Writer, Instruments - Burt Bacharach, Writer - David, Writer - Erasure, Performance, MainArtist - GARETH JONES, Producer - Neil McLellan, Producer - Phil Kinrade, Engineer ITUNESADVISORY : 0 MEDIATYPE : album UPC : 4050538919400 URL : https://www.qobuz.com/fr-fr/album/cowboy-erasure/z4jljp7macvec Audio Format : FLAC Format/Info : Free Lossless Audio Codec Duration : 3 min 5 s Bit rate mode : Variable Bit rate : 1 700 kb/s Channel(s) : 2 channels Channel layout : L R Sampling rate : 44.1 kHz Bit depth : 24 bits Compression mode : Lossless Stream size : 37.6 MiB (100%) MD5 of the unencoded content : 00000000000000000000000000000000 General Complete name : C:Deemix MusicErasure - 1997 - Cowboy (2024 Expanded Edition) FLAC (24bit-44.1kHz)�8 - Boy (2024 Remaster).flac Format : FLAC Format/Info : Free Lossless Audio Codec File size : 45.5 MiB Duration : 3 min 41 s Overall bit rate mode : Variable Overall bit rate : 1 722 kb/s Album : Cowboy (2024 Expanded Edition) Album/Performer : Erasure Part : 1 Part/Total : 1 Track name : Boy (2024 Remaster) Track name/Position : 8 Track name/Total : 28 Performer : Erasure Composer : Andy Bell & Vince Clarke Producer : Mute, a BMG Company Label : Mute, a BMG Company Genre : Synthpop, New Wave Recorded date : 2024-05-31 ISRC : GB5KW2301012 Copyright : © 2024 Mute Records Ltd., a BMG Company ℗ 2024 Mute Records Ltd., a BMG Company Cover : Yes Cover type : Cover (front) Cover MIME : image/jpeg PRODUCER : GARETH JONES & Neil McLellan INVOLVEDPEOPLE : Andy Bell, Composer, Vocals, Writer - Vince Clarke, Composer, Writer, Instruments - Erasure, Performance, MainArtist - GARETH JONES, Producer - Neil McLellan, Producer - Phil Kinrade, Engineer ITUNESADVISORY : 0 MEDIATYPE : album UPC : 4050538919400 URL : https://www.qobuz.com/fr-fr/album/cowboy-erasure/z4jljp7macvec Audio Format : FLAC Format/Info : Free Lossless Audio Codec Duration : 3 min 41 s Bit rate mode : Variable Bit rate : 1 719 kb/s Channel(s) : 2 channels Channel layout : L R Sampling rate : 44.1 kHz Bit depth : 24 bits Compression mode : Lossless Stream size : 45.4 MiB (100%) MD5 of the unencoded content : 00000000000000000000000000000000 General Complete name : C:Deemix MusicErasure - 1997 - Cowboy (2024 Expanded Edition) FLAC (24bit-44.1kHz)�9 - How Can I Say (2024 Remaster).flac Format : FLAC Format/Info : Free Lossless Audio Codec File size : 39.2 MiB Duration : 3 min 17 s Overall bit rate mode : Variable Overall bit rate : 1 670 kb/s Album : Cowboy (2024 Expanded Edition) Album/Performer : Erasure Part : 1 Part/Total : 1 Track name : How Can I Say (2024 Remaster) Track name/Position : 9 Track name/Total : 28 Performer : Erasure Composer : Andy Bell & Vince Clarke Producer : Mute, a BMG Company Label : Mute, a BMG Company Genre : Synthpop, New Wave Recorded date : 2024-05-31 ISRC : GB5KW2301013 Copyright : © 2024 Mute Records Ltd., a BMG Company ℗ 2024 Mute Records Ltd., a BMG Company Cover : Yes Cover type : Cover (front) Cover MIME : image/jpeg PRODUCER : GARETH JONES & Neil McLellan INVOLVEDPEOPLE : Andy Bell, Composer, Vocals, Writer - Vince Clarke, Composer, Writer, Instruments - Burt Bacharach, Writer - David, Writer - Erasure, Performance, MainArtist - GARETH JONES, Producer - Neil McLellan, Producer - Phil Kinrade, Engineer ITUNESADVISORY : 0 MEDIATYPE : album UPC : 4050538919400 URL : https://www.qobuz.com/fr-fr/album/cowboy-erasure/z4jljp7macvec Audio Format : FLAC Format/Info : Free Lossless Audio Codec Duration : 3 min 17 s Bit rate mode : Variable Bit rate : 1 666 kb/s Channel(s) : 2 channels Channel layout : L R Sampling rate : 44.1 kHz Bit depth : 24 bits Compression mode : Lossless Stream size : 39.1 MiB (100%) MD5 of the unencoded content : 00000000000000000000000000000000 General Complete name : C:Deemix MusicErasure - 1997 - Cowboy (2024 Expanded Edition) FLAC (24bit-44.1kHz)10 - Save Me Darling (2024 Remaster).flac Format : FLAC Format/Info : Free Lossless Audio Codec File size : 48.6 MiB Duration : 4 min 1 s Overall bit rate mode : Variable Overall bit rate : 1 688 kb/s Album : Cowboy (2024 Expanded Edition) Album/Performer : Erasure Part : 1 Part/Total : 1 Track name : Save Me Darling (2024 Remaster) Track name/Position : 10 Track name/Total : 28 Performer : Erasure Composer : Andy Bell & Vince Clarke Producer : Mute, a BMG Company Label : Mute, a BMG Company Genre : Synthpop, New Wave Recorded date : 2024-05-31 ISRC : GB5KW2301014 Copyright : © 2024 Mute Records Ltd., a BMG Company ℗ 2024 Mute Records Ltd., a BMG Company Cover : Yes Cover type : Cover (front) Cover MIME : image/jpeg PRODUCER : GARETH JONES & Neil McLellan INVOLVEDPEOPLE : Andy Bell, Composer, Vocals, Writer - Vince Clarke, Composer, Writer, Instruments - Burt Bacharach, Writer - Erasure, Performance, MainArtist - GARETH JONES, Producer - Neil McLellan, Producer - Phil Kinrade, Engineer ITUNESADVISORY : 0 MEDIATYPE : album UPC : 4050538919400 URL : https://www.qobuz.com/fr-fr/album/cowboy-erasure/z4jljp7macvec Audio Format : FLAC Format/Info : Free Lossless Audio Codec Duration : 4 min 1 s Bit rate mode : Variable Bit rate : 1 685 kb/s Channel(s) : 2 channels Channel layout : L R Sampling rate : 44.1 kHz Bit depth : 24 bits Compression mode : Lossless Stream size : 48.5 MiB (100%) MD5 of the unencoded content : 00000000000000000000000000000000 General Complete name : C:Deemix MusicErasure - 1997 - Cowboy (2024 Expanded Edition) FLAC (24bit-44.1kHz)11 - Love Affair (2024 Remaster).flac Format : FLAC Format/Info : Free Lossless Audio Codec File size : 41.3 MiB Duration : 3 min 37 s Overall bit rate mode : Variable Overall bit rate : 1 596 kb/s Album : Cowboy (2024 Expanded Edition) Album/Performer : Erasure Part : 1 Part/Total : 1 Track name : Love Affair (2024 Remaster) Track name/Position : 11 Track name/Total : 28 Performer : Erasure Composer : Andy Bell & Vince Clarke Producer : Mute, a BMG Company Label : Mute, a BMG Company Genre : Synthpop, New Wave Recorded date : 2024-05-31 ISRC : GB5KW2301015 Copyright : © 2024 Mute Records Ltd., a BMG Company ℗ 2024 Mute Records Ltd., a BMG Company Cover : Yes Cover type : Cover (front) Cover MIME : image/jpeg PRODUCER : GARETH JONES & Neil McLellan INVOLVEDPEOPLE : Andy Bell, Composer, Vocals, Writer - Vince Clarke, Composer, Writer, Instruments - Burt Bacharach, Writer - David, Writer - Erasure, Performance, MainArtist - GARETH JONES, Producer - Neil McLellan, Producer - Phil Kinrade, Engineer ITUNESADVISORY : 0 MEDIATYPE : album UPC : 4050538919400 URL : https://www.qobuz.com/fr-fr/album/cowboy-erasure/z4jljp7macvec Audio Format : FLAC Format/Info : Free Lossless Audio Codec Duration : 3 min 37 s Bit rate mode : Variable Bit rate : 1 593 kb/s Channel(s) : 2 channels Channel layout : L R Sampling rate : 44.1 kHz Bit depth : 24 bits Compression mode : Lossless Stream size : 41.2 MiB (100%) MD5 of the unencoded content : 00000000000000000000000000000000 General Complete name : C:Deemix MusicErasure - 1997 - Cowboy (2024 Expanded Edition) FLAC (24bit-44.1kHz)12 - Rain (Al Stone Mix; 2024 Remaster).flac Format : FLAC Format/Info : Free Lossless Audio Codec File size : 51.0 MiB Duration : 4 min 9 s Overall bit rate mode : Variable Overall bit rate : 1 719 kb/s Album : Cowboy (2024 Expanded Edition) Album/Performer : Erasure Part : 1 Part/Total : 1 Track name : Rain (Al Stone Mix; 2024 Remaster) Track name/Position : 12 Track name/Total : 28 Performer : Erasure Composer : Andy Bell & Vince Clarke Producer : Mute, a BMG Company Label : Mute, a BMG Company Genre : Synthpop, New Wave Recorded date : 2024-05-31 ISRC : GB5KW2301113 Copyright : © 2024 Mute Records Ltd., a BMG Company ℗ 2024 Mute Records Ltd., a BMG Company Cover : Yes Cover type : Cover (front) Cover MIME : image/jpeg PRODUCER : GARETH JONES & Neil McLellan INVOLVEDPEOPLE : Andy Bell, Composer, Vocals, Writer - Vince Clarke, Composer, Writer, Instruments - Erasure, Performance, MainArtist - GARETH JONES, Producer - Al Stone, Remixer - Neil McLellan, Producer - Phil Kinrade, Engineer ITUNESADVISORY : 0 MEDIATYPE : album UPC : 4050538919400 URL : https://www.qobuz.com/fr-fr/album/cowboy-erasure/z4jljp7macvec Audio Format : FLAC Format/Info : Free Lossless Audio Codec Duration : 4 min 9 s Bit rate mode : Variable Bit rate : 1 716 kb/s Channel(s) : 2 channels Channel layout : L R Sampling rate : 44.1 kHz Bit depth : 24 bits Compression mode : Lossless Stream size : 51.0 MiB (100%) MD5 of the unencoded content : 00000000000000000000000000000000 General Complete name : C:Deemix MusicErasure - 1997 - Cowboy (2024 Expanded Edition) FLAC (24bit-44.1kHz)13 - Rapture (Extended Version; 2024 Remaster).flac Format : FLAC Format/Info : Free Lossless Audio Codec File size : 77.2 MiB Duration : 6 min 32 s Overall bit rate mode : Variable Overall bit rate : 1 652 kb/s Album : Cowboy (2024 Expanded Edition) Album/Performer : Erasure Part : 1 Part/Total : 1 Track name : Rapture (Extended Version; 2024 Remaster) Track name/Position : 13 Track name/Total : 28 Performer : Erasure Composer : Chris Stein & Debbie Harry Producer : Mute, a BMG Company Label : Mute, a BMG Company Genre : Synthpop, New Wave Recorded date : 2024-05-31 ISRC : GB5KW2301114 Copyright : © 2024 Mute Records Ltd., a BMG Company ℗ 2024 Mute Records Ltd., a BMG Company Cover : Yes Cover type : Cover (front) Cover MIME : image/jpeg PRODUCER : GARETH JONES & Neil McLellan INVOLVEDPEOPLE : Andy Bell, Vocals - Vince Clarke, Instruments - Burt Bacharach, Writer - David, Writer - Erasure, MainArtist - Chris Stein, Composer - GARETH JONES, Producer - Debbie Harry, Composer - Neil McLellan, Producer ITUNESADVISORY : 0 MEDIATYPE : album UPC : 4050538919400 URL : https://www.qobuz.com/fr-fr/album/cowboy-erasure/z4jljp7macvec Audio Format : FLAC Format/Info : Free Lossless Audio Codec Duration : 6 min 32 s Bit rate mode : Variable Bit rate : 1 650 kb/s Channel(s) : 2 channels Channel layout : L R Sampling rate : 44.1 kHz Bit depth : 24 bits Compression mode : Lossless Stream size : 77.1 MiB (100%) MD5 of the unencoded content : 00000000000000000000000000000000 General Complete name : C:Deemix MusicErasure - 1997 - Cowboy (2024 Expanded Edition) FLAC (24bit-44.1kHz)14 - In the Name of the Heart (2024 Remaster).flac Format : FLAC Format/Info : Free Lossless Audio Codec File size : 46.9 MiB Duration : 3 min 50 s Overall bit rate mode : Variable Overall bit rate : 1 709 kb/s Album : Cowboy (2024 Expanded Edition) Album/Performer : Erasure Part : 1 Part/Total : 1 Track name : In the Name of the Heart (2024 Remaster) Track name/Position : 14 Track name/Total : 28 Performer : Erasure Composer : Andy Bell & Vince Clarke Producer : Mute, a BMG Company Label : Mute, a BMG Company Genre : Synthpop, New Wave Recorded date : 2024-05-31 ISRC : GB5KW2301115 Copyright : © 2024 Mute Records Ltd., a BMG Company ℗ 2024 Mute Records Ltd., a BMG Company Cover : Yes Cover type : Cover (front) Cover MIME : image/jpeg PRODUCER : GARETH JONES & Neil McLellan INVOLVEDPEOPLE : Andy Bell, Composer, Vocals - Vince Clarke, Composer, Instruments - Erasure, Performance, MainArtist - GARETH JONES, Producer - Neil McLellan, Producer - Phil Kinrade, Engineer ITUNESADVISORY : 0 MEDIATYPE : album UPC : 4050538919400 URL : https://www.qobuz.com/fr-fr/album/cowboy-erasure/z4jljp7macvec Audio Format : FLAC Format/Info : Free Lossless Audio Codec Duration : 3 min 50 s Bit rate mode : Variable Bit rate : 1 706 kb/s Channel(s) : 2 channels Channel layout : L R Sampling rate : 44.1 kHz Bit depth : 24 bits Compression mode : Lossless Stream size : 46.8 MiB (100%) MD5 of the unencoded content : 00000000000000000000000000000000 General Complete name : C:Deemix MusicErasure - 1997 - Cowboy (2024 Expanded Edition) FLAC (24bit-44.1kHz)15 - First Contact (Vocal Mix; 2024 Remaster).flac Format : FLAC Format/Info : Free Lossless Audio Codec File size : 72.0 MiB Duration : 6 min 4 s Overall bit rate mode : Variable Overall bit rate : 1 658 kb/s Album : Cowboy (2024 Expanded Edition) Album/Performer : Erasure Part : 1 Part/Total : 1 Track name : First Contact (Vocal Mix; 2024 Remaster) Track name/Position : 15 Track name/Total : 28 Performer : Erasure Composer : Andy Bell, Vince Clarke, Phil Harding, GARETH JONES & Ian Curnow Producer : Mute, a BMG Company Label : Mute, a BMG Company Genre : Synthpop, New Wave Recorded date : 2024-05-31 ISRC : GB5KW2301116 Copyright : © 2024 Mute Records Ltd., a BMG Company ℗ 2024 Mute Records Ltd., a BMG Company Cover : Yes Cover type : Cover (front) Cover MIME : image/jpeg PRODUCER : GARETH JONES & Neil McLellan INVOLVEDPEOPLE : Andy Bell, Composer, Vocals - Vince Clarke, Composer, Instruments - Phil Harding, Composer - Erasure, Performance, MainArtist - GARETH JONES, Composer, Producer - Ian Curnow, Composer - Neil McLellan, Producer - Phil Kinrade, Engineer ITUNESADVISORY : 0 MEDIATYPE : album UPC : 4050538919400 URL : https://www.qobuz.com/fr-fr/album/cowboy-erasure/z4jljp7macvec Audio Format : FLAC Format/Info : Free Lossless Audio Codec Duration : 6 min 4 s Bit rate mode : Variable Bit rate : 1 656 kb/s Channel(s) : 2 channels Channel layout : L R Sampling rate : 44.1 kHz Bit depth : 24 bits Compression mode : Lossless Stream size : 71.9 MiB (100%) MD5 of the unencoded content : 00000000000000000000000000000000 General Complete name : C:Deemix MusicErasure - 1997 - Cowboy (2024 Expanded Edition) FLAC (24bit-44.1kHz)16 - Reach Out (Alternative Lyrics; 2024 Remaster).flac Format : FLAC Format/Info : Free Lossless Audio Codec File size : 44.7 MiB Duration : 3 min 47 s Overall bit rate mode : Variable Overall bit rate : 1 649 kb/s Album : Cowboy (2024 Expanded Edition) Album/Performer : Erasure Part : 1 Part/Total : 1 Track name : Reach Out (Alternative Lyrics; 2024 Remaster) Track name/Position : 16 Track name/Total : 28 Performer : Erasure Composer : Andy Bell & Vince Clarke Producer : Mute, a BMG Company Label : Mute, a BMG Company Genre : Synthpop, New Wave Recorded date : 2024-05-31 ISRC : GB5KW2301117 Copyright : © 2024 Mute Records Ltd., a BMG Company ℗ 2024 Mute Records Ltd., a BMG Company Cover : Yes Cover type : Cover (front) Cover MIME : image/jpeg PRODUCER : GARETH JONES & Neil McLellan INVOLVEDPEOPLE : Andy Bell, Composer, Vocals, Writer - Vince Clarke, Composer, Writer, Instruments - Burt Bacharach, Writer - David, Writer - Erasure, Performance, MainArtist - GARETH JONES, Producer - Neil McLellan, Producer ITUNESADVISORY : 0 MEDIATYPE : album UPC : 4050538919400 URL : https://www.qobuz.com/fr-fr/album/cowboy-erasure/z4jljp7macvec Audio Format : FLAC Format/Info : Free Lossless Audio Codec Duration : 3 min 47 s Bit rate mode : Variable Bit rate : 1 646 kb/s Channel(s) : 2 channels Channel layout : L R Sampling rate : 44.1 kHz Bit depth : 24 bits Compression mode : Lossless Stream size : 44.6 MiB (100%) MD5 of the unencoded content : 00000000000000000000000000000000 General Complete name : C:Deemix MusicErasure - 1997 - Cowboy (2024 Expanded Edition) FLAC (24bit-44.1kHz)17 - In My Arms (Acoustic Version; 2024 Remaster).flac Format : FLAC Format/Info : Free Lossless Audio Codec File size : 32.1 MiB Duration : 3 min 5 s Overall bit rate mode : Variable Overall bit rate : 1 450 kb/s Album : Cowboy (2024 Expanded Edition) Album/Performer : Erasure Part : 1 Part/Total : 1 Track name : In My Arms (Acoustic Version; 2024 Remaster) Track name/Position : 17 Track name/Total : 28 Performer : Erasure Composer : Andy Bell & Vince Clarke Producer : Mute, a BMG Company Label : Mute, a BMG Company Genre : Synthpop, New Wave Recorded date : 2024-05-31 ISRC : GB5KW2301118 Copyright : © 2024 Mute Records Ltd., a BMG Company ℗ 2024 Mute Records Ltd., a BMG Company Cover : Yes Cover type : Cover (front) Cover MIME : image/jpeg PRODUCER : GARETH JONES & Neil McLellan INVOLVEDPEOPLE : Andy Bell, Composer, Vocals, Writer - Vince Clarke, Composer, Writer, Instruments - Erasure, MainArtist - GARETH JONES, Producer - Neil McLellan, Producer ITUNESADVISORY : 0 MEDIATYPE : album UPC : 4050538919400 URL : https://www.qobuz.com/fr-fr/album/cowboy-erasure/z4jljp7macvec Audio Format : FLAC Format/Info : Free Lossless Audio Codec Duration : 3 min 5 s Bit rate mode : Variable Bit rate : 1 447 kb/s Channel(s) : 2 channels Channel layout : L R Sampling rate : 44.1 kHz Bit depth : 24 bits Compression mode : Lossless Stream size : 32.1 MiB (100%) MD5 of the unencoded content : 00000000000000000000000000000000 General Complete name : C:Deemix MusicErasure - 1997 - Cowboy (2024 Expanded Edition) FLAC (24bit-44.1kHz)18 - Magic Moments (Alternative Mix; 2024 Remaster).flac Format : FLAC Format/Info : Free Lossless Audio Codec File size : 30.5 MiB Duration : 2 min 41 s Overall bit rate mode : Variable Overall bit rate : 1 579 kb/s Album : Cowboy (2024 Expanded Edition) Album/Performer : Erasure Part : 1 Part/Total : 1 Track name : Magic Moments (Alternative Mix; 2024 Remaster) Track name/Position : 18 Track name/Total : 28 Performer : Erasure Composer : Andy Bell & Vince Clarke Producer : Mute, a BMG Company Label : Mute, a BMG Company Genre : Synthpop, New Wave Recorded date : 2024-05-31 ISRC : GB5KW2301119 Copyright : © 2024 Mute Records Ltd., a BMG Company ℗ 2024 Mute Records Ltd., a BMG Company Cover : Yes Cover type : Cover (front) Cover MIME : image/jpeg PRODUCER : GARETH JONES & Neil McLellan INVOLVEDPEOPLE : Andy Bell, Composer, Vocals, Writer - Vince Clarke, Composer, Writer, Instruments - Burt Bacharach, Writer - David, Writer - Erasure, MainArtist - GARETH JONES, Producer - Neil McLellan, Producer ITUNESADVISORY : 0 MEDIATYPE : album UPC : 4050538919400 URL : https://www.qobuz.com/fr-fr/album/cowboy-erasure/z4jljp7macvec Audio Format : FLAC Format/Info : Free Lossless Audio Codec Duration : 2 min 41 s Bit rate mode : Variable Bit rate : 1 575 kb/s Channel(s) : 2 channels Channel layout : L R Sampling rate : 44.1 kHz Bit depth : 24 bits Compression mode : Lossless Stream size : 30.4 MiB (100%) MD5 of the unencoded content : 00000000000000000000000000000000 General Complete name : C:Deemix MusicErasure - 1997 - Cowboy (2024 Expanded Edition) FLAC (24bit-44.1kHz)19 - My Love (2024 Remaster).flac Format : FLAC Format/Info : Free Lossless Audio Codec File size : 30.8 MiB Duration : 2 min 30 s Overall bit rate mode : Variable Overall bit rate : 1 718 kb/s Album : Cowboy (2024 Expanded Edition) Album/Performer : Erasure Part : 1 Part/Total : 1 Track name : My Love (2024 Remaster) Track name/Position : 19 Track name/Total : 28 Performer : Erasure Composer : Vince Clarke Producer : Mute, a BMG Company Label : Mute, a BMG Company Genre : Synthpop, New Wave Recorded date : 2024-05-31 ISRC : GB5KW2301120 Copyright : © 2024 Mute Records Ltd., a BMG Company ℗ 2024 Mute Records Ltd., a BMG Company Cover : Yes Cover type : Cover (front) Cover MIME : image/jpeg PRODUCER : GARETH JONES & Neil McLellan INVOLVEDPEOPLE : Andy Bell, Vocals - Vince Clarke, Composer, Writer, Instruments - Erasure, MainArtist - GARETH JONES, Producer - Neil McLellan, Producer ITUNESADVISORY : 0 MEDIATYPE : album UPC : 4050538919400 URL : https://www.qobuz.com/fr-fr/album/cowboy-erasure/z4jljp7macvec Audio Format : FLAC Format/Info : Free Lossless Audio Codec Duration : 2 min 30 s Bit rate mode : Variable Bit rate : 1 713 kb/s Channel(s) : 2 channels Channel layout : L R Sampling rate : 44.1 kHz Bit depth : 24 bits Compression mode : Lossless Stream size : 30.7 MiB (100%) MD5 of the unencoded content : 00000000000000000000000000000000 General Complete name : C:Deemix MusicErasure - 1997 - Cowboy (2024 Expanded Edition) FLAC (24bit-44.1kHz)20 - Earth (2024 Remaster).flac Format : FLAC Format/Info : Free Lossless Audio Codec File size : 34.0 MiB Duration : 2 min 59 s Overall bit rate mode : Variable Overall bit rate : 1 592 kb/s Album : Cowboy (2024 Expanded Edition) Album/Performer : Erasure Part : 1 Part/Total : 1 Track name : Earth (2024 Remaster) Track name/Position : 20 Track name/Total : 28 Performer : Erasure Composer : Andy Bell & Vince Clarke Producer : Mute, a BMG Company Label : Mute, a BMG Company Genre : Synthpop, New Wave Recorded date : 2024-05-31 ISRC : GB5KW2301121 Copyright : © 2024 Mute Records Ltd., a BMG Company ℗ 2024 Mute Records Ltd., a BMG Company Cover : Yes Cover type : Cover (front) Cover MIME : image/jpeg PRODUCER : GARETH JONES & Neil McLellan INVOLVEDPEOPLE : Andy Bell, Composer, Vocals, Writer - Vince Clarke, Composer, Writer, Instruments - Erasure, MainArtist - GARETH JONES, Producer - Neil McLellan, Producer ITUNESADVISORY : 0 MEDIATYPE : album UPC : 4050538919400 URL : https://www.qobuz.com/fr-fr/album/cowboy-erasure/z4jljp7macvec Audio Format : FLAC Format/Info : Free Lossless Audio Codec Duration : 2 min 59 s Bit rate mode : Variable Bit rate : 1 588 kb/s Channel(s) : 2 channels Channel layout : L R Sampling rate : 44.1 kHz Bit depth : 24 bits Compression mode : Lossless Stream size : 34.0 MiB (100%) MD5 of the unencoded content : 00000000000000000000000000000000 General Complete name : C:Deemix MusicErasure - 1997 - Cowboy (2024 Expanded Edition) FLAC (24bit-44.1kHz)21 - Worlds on Fire (Demo Version; 2024 Remaster).flac Format : FLAC Format/Info : Free Lossless Audio Codec File size : 18.9 MiB Duration : 3 min 23 s Overall bit rate mode : Variable Overall bit rate : 779 kb/s Album : Cowboy (2024 Expanded Edition) Album/Performer : Erasure Part : 1 Part/Total : 1 Track name : Worlds on Fire (Demo Version; 2024 Remaster) Track name/Position : 21 Track name/Total : 28 Performer : Erasure Composer : Andy Bell & Vince Clarke Producer : Mute, a BMG Company Label : Mute, a BMG Company Genre : Synthpop, New Wave Recorded date : 2024-05-31 ISRC : GB5KW2301122 Copyright : © 2024 Mute Records Ltd., a BMG Company ℗ 2024 Mute Records Ltd., a BMG Company Cover : Yes Cover type : Cover (front) Cover MIME : image/jpeg PRODUCER : GARETH JONES & Neil McLellan INVOLVEDPEOPLE : Andy Bell, Composer, Vocals, Writer - Vince Clarke, Composer, Writer, Instruments - Burt Bacharach, Writer - David, Writer - Erasure, MainArtist - GARETH JONES, Producer - Neil McLellan, Producer - Phil Kinrade, Engineer ITUNESADVISORY : 0 MEDIATYPE : album UPC : 4050538919400 URL : https://www.qobuz.com/fr-fr/album/cowboy-erasure/z4jljp7macvec Audio Format : FLAC Format/Info : Free Lossless Audio Codec Duration : 3 min 23 s Bit rate mode : Variable Bit rate : 776 kb/s Channel(s) : 2 channels Channel layout : L R Sampling rate : 44.1 kHz Bit depth : 16 bits Compression mode : Lossless Stream size : 18.8 MiB (100%) MD5 of the unencoded content : 00000000000000000000000000000000 General Complete name : C:Deemix MusicErasure - 1997 - Cowboy (2024 Expanded Edition) FLAC (24bit-44.1kHz)22 - In My Arms (Love To Infinity Stratomaster Mix;US Edit; 2024 Remaster).flac Format : FLAC Format/Info : Free Lossless Audio Codec File size : 52.8 MiB Duration : 4 min 18 s Overall bit rate mode : Variable Overall bit rate : 1 714 kb/s Album : Cowboy (2024 Expanded Edition) Album/Performer : Erasure Part : 1 Part/Total : 1 Track name : In My Arms (Love To Infinity Stratomaster Mix;US Edit; 2024 Remaster) Track name/Position : 22 Track name/Total : 28 Performer : Erasure Composer : Andy Bell & Vince Clarke Producer : Mute, a BMG Company Label : Mute, a BMG Company Genre : Synthpop, New Wave Recorded date : 2024-05-31 ISRC : GB5KW2301124 Copyright : © 2024 Mute Records Ltd., a BMG Company ℗ 2024 Mute Records Ltd., a BMG Company Cover : Yes Cover type : Cover (front) Cover MIME : image/jpeg PRODUCER : GARETH JONES & Neil McLellan INVOLVEDPEOPLE : Andy Bell, Composer, Vocals, Writer - Vince Clarke, Composer, Writer, Instruments - LOVE TO INFINITY, Remixer - Erasure, MainArtist - GARETH JONES, Producer - Neil McLellan, Producer ITUNESADVISORY : 0 MEDIATYPE : album UPC : 4050538919400 URL : https://www.qobuz.com/fr-fr/album/cowboy-erasure/z4jljp7macvec Audio Format : FLAC Format/Info : Free Lossless Audio Codec Duration : 4 min 18 s Bit rate mode : Variable Bit rate : 1 711 kb/s Channel(s) : 2 channels Channel layout : L R Sampling rate : 44.1 kHz Bit depth : 24 bits Compression mode : Lossless Stream size : 52.7 MiB (100%) MD5 of the unencoded content : 00000000000000000000000000000000 General Complete name : C:Deemix MusicErasure - 1997 - Cowboy (2024 Expanded Edition) FLAC (24bit-44.1kHz)23 - Don't Say Your Love Is Killing Me (TELEX Remix; 2024 Remaster).flac Format : FLAC Format/Info : Free Lossless Audio Codec File size : 38.9 MiB Duration : 3 min 27 s Overall bit rate mode : Variable Overall bit rate : 1 572 kb/s Album : Cowboy (2024 Expanded Edition) Album/Performer : Erasure Part : 1 Part/Total : 1 Track name : Don't Say Your Love Is Killing Me (TELEX Remix; 2024 Remaster) Track name/Position : 23 Track name/Total : 28 Performer : Erasure Composer : Andy Bell & Vince Clarke Producer : Mute, a BMG Company Label : Mute, a BMG Company Genre : Synthpop, New Wave Recorded date : 2024-05-31 ISRC : GB5KW2301123 Copyright : © 2024 Mute Records Ltd., a BMG Company ℗ 2024 Mute Records Ltd., a BMG Company Cover : Yes Cover type : Cover (front) Cover MIME : image/jpeg INVOLVEDPEOPLE : Andy Bell, Composer, Vocals, Writer - Vince Clarke, Composer, Keyboards, Writer - Erasure, MainArtist - Telex, Remixer ITUNESADVISORY : 0 MEDIATYPE : album UPC : 4050538919400 URL : https://www.qobuz.com/fr-fr/album/cowboy-erasure/z4jljp7macvec Audio Format : FLAC Format/Info : Free Lossless Audio Codec Duration : 3 min 27 s Bit rate mode : Variable Bit rate : 1 569 kb/s Channel(s) : 2 channels Channel layout : L R Sampling rate : 44.1 kHz Bit depth : 24 bits Compression mode : Lossless Stream size : 38.8 MiB (100%) MD5 of the unencoded content : 00000000000000000000000000000000 General Complete name : C:Deemix MusicErasure - 1997 - Cowboy (2024 Expanded Edition) FLAC (24bit-44.1kHz)24 - Rain (Blancmange Remix; 2024 Remaster).flac Format : FLAC Format/Info : Free Lossless Audio Codec File size : 55.2 MiB Duration : 5 min 18 s Overall bit rate mode : Variable Overall bit rate : 1 454 kb/s Album : Cowboy (2024 Expanded Edition) Album/Performer : Erasure Part : 1 Part/Total : 1 Track name : Rain (Blancmange Remix; 2024 Remaster) Track name/Position : 24 Track name/Total : 28 Performer : Erasure Composer : Andy Bell & Vince Clarke Producer : Mute, a BMG Company Label : Mute, a BMG Company Genre : Synthpop, New Wave Recorded date : 2024-05-31 ISRC : GB5KW2301125 Copyright : © 2024 Mute Records Ltd., a BMG Company ℗ 2024 Mute Records Ltd., a BMG Company Cover : Yes Cover type : Cover (front) Cover MIME : image/jpeg PRODUCER : GARETH JONES & Neil McLellan INVOLVEDPEOPLE : Andy Bell, Composer, Vocals, Writer - Vince Clarke, Composer, Writer, Instruments - Erasure, MainArtist - Blancmange, Remixer - GARETH JONES, Producer - Neil McLellan, Producer ITUNESADVISORY : 0 MEDIATYPE : album UPC : 4050538919400 URL : https://www.qobuz.com/fr-fr/album/cowboy-erasure/z4jljp7macvec Audio Format : FLAC Format/Info : Free Lossless Audio Codec Duration : 5 min 18 s Bit rate mode : Variable Bit rate : 1 452 kb/s Channel(s) : 2 channels Channel layout : L R Sampling rate : 44.1 kHz Bit depth : 24 bits Compression mode : Lossless Stream size : 55.1 MiB (100%) MD5 of the unencoded content : 00000000000000000000000000000000 General Complete name : C:Deemix MusicErasure - 1997 - Cowboy (2024 Expanded Edition) FLAC (24bit-44.1kHz)25 - Don't Say Your Love Is Killing Me (Jon Pleased Wimmin Flashbox Vox) (2024 Remaster).flac Format : FLAC Format/Info : Free Lossless Audio Codec File size : 81.6 MiB Duration : 6 min 43 s Overall bit rate mode : Variable Overall bit rate : 1 695 kb/s Album : Cowboy (2024 Expanded Edition) Album/Performer : Erasure Part : 1 Part/Total : 1 Track name : Don't Say Your Love Is Killing Me (Jon Pleased Wimmin Flashbox Vox) (2024 Remaster) Track name/Position : 25 Track name/Total : 28 Performer : Erasure Composer : Andy Bell & Vince Clarke Producer : Mute, a BMG Company Label : Mute, a BMG Company Genre : Synthpop, New Wave Recorded date : 2024-05-31 ISRC : GB5KW2301126 Copyright : © 2024 Mute Records Ltd., a BMG Company ℗ 2024 Mute Records Ltd., a BMG Company Cover : Yes Cover type : Cover (front) Cover MIME : image/jpeg PRODUCER : GARETH JONES & Neil McLellan INVOLVEDPEOPLE : Andy Bell, Composer, Vocals, Writer - Vince Clarke, Composer, Writer, Instruments - Erasure, Performance, MainArtist - GARETH JONES, Producer - Neil McLellan, Producer - Phil Kinrade, Engineer - John Pleased Wimmin, Remixer ITUNESADVISORY : 0 MEDIATYPE : album UPC : 4050538919400 URL : https://www.qobuz.com/fr-fr/album/cowboy-erasure/z4jljp7macvec Audio Format : FLAC Format/Info : Free Lossless Audio Codec Duration : 6 min 43 s Bit rate mode : Variable Bit rate : 1 693 kb/s Channel(s) : 2 channels Channel layout : L R Sampling rate : 44.1 kHz Bit depth : 24 bits Compression mode : Lossless Stream size : 81.5 MiB (100%) MD5 of the unencoded content : 00000000000000000000000000000000 General Complete name : C:Deemix MusicErasure - 1997 - Cowboy (2024 Expanded Edition) FLAC (24bit-44.1kHz)26 - In My Arms (Crumbling Down Extended Instrumental Remix; 2024 Remaster).flac Format : FLAC Format/Info : Free Lossless Audio Codec File size : 98.5 MiB Duration : 8 min 26 s Overall bit rate mode : Variable Overall bit rate : 1 633 kb/s Album : Cowboy (2024 Expanded Edition) Album/Performer : Erasure Part : 1 Part/Total : 1 Track name : In My Arms (Crumbling Down Extended Instrumental Remix; 2024 Remaster) Track name/Position : 26 Track name/Total : 28 Performer : Erasure Composer : Andy Bell & Vince Clarke Producer : Mute, a BMG Company Label : Mute, a BMG Company Genre : Synthpop, New Wave Recorded date : 2024-05-31 ISRC : GB5KW2304979 Copyright : © 2024 Mute Records Ltd., a BMG Company ℗ 2024 Mute Records Ltd., a BMG Company Cover : Yes Cover type : Cover (front) Cover MIME : image/jpeg PRODUCER : GARETH JONES & Neil McLellan INVOLVEDPEOPLE : Andy Bell, Composer, Vocals, Writer - Vince Clarke, Composer, Writer, Instruments - Erasure, MainArtist - GARETH JONES, Producer - Neil McLellan, Producer, Remixer ITUNESADVISORY : 0 MEDIATYPE : album UPC : 4050538919400 URL : https://www.qobuz.com/fr-fr/album/cowboy-erasure/z4jljp7macvec Audio Format : FLAC Format/Info : Free Lossless Audio Codec Duration : 8 min 26 s Bit rate mode : Variable Bit rate : 1 632 kb/s Channel(s) : 2 channels Channel layout : L R Sampling rate : 44.1 kHz Bit depth : 24 bits Compression mode : Lossless Stream size : 98.4 MiB (100%) MD5 of the unencoded content : 00000000000000000000000000000000 General Complete name : C:Deemix MusicErasure - 1997 - Cowboy (2024 Expanded Edition) FLAC (24bit-44.1kHz)27 - Rain (Stealing Sheep Remix).flac Format : FLAC Format/Info : Free Lossless Audio Codec File size : 50.9 MiB Duration : 4 min 40 s Overall bit rate mode : Variable Overall bit rate : 1 522 kb/s Album : Cowboy (2024 Expanded Edition) Album/Performer : Erasure Part : 1 Part/Total : 1 Track name : Rain (Stealing Sheep Remix) Track name/Position : 27 Track name/Total : 28 Performer : Erasure Composer : Andy Bell & Vince Clarke Producer : Mute, a BMG Company Label : Mute, a BMG Company Genre : Synthpop, New Wave Recorded date : 2024-05-31 ISRC : GB5KW2304980 Copyright : © 2024 Mute Records Ltd., a BMG Company ℗ 1997 Mute Records Ltd., a BMG Company Cover : Yes Cover type : Cover (front) Cover MIME : image/jpeg PRODUCER : GARETH JONES & Neil McLellan INVOLVEDPEOPLE : Andy Bell, Composer, Vocals, Writer - Vince Clarke, Composer, Writer, Instruments - Erasure, Performance, MainArtist - GARETH JONES, Producer - Neil McLellan, Producer ITUNESADVISORY : 0 MEDIATYPE : album UPC : 4050538919400 URL : https://www.qobuz.com/fr-fr/album/cowboy-erasure/z4jljp7macvec Audio Format : FLAC Format/Info : Free Lossless Audio Codec Duration : 4 min 40 s Bit rate mode : Variable Bit rate : 1 519 kb/s Channel(s) : 2 channels Channel layout : L R Sampling rate : 44.1 kHz Bit depth : 24 bits Compression mode : Lossless Stream size : 50.9 MiB (100%) MD5 of the unencoded content : 00000000000000000000000000000000 General Complete name : C:Deemix MusicErasure - 1997 - Cowboy (2024 Expanded Edition) FLAC (24bit-44.1kHz)28 - Heart of Glass (Live in Oxford; 2024 Remaster).flac Format : FLAC Format/Info : Free Lossless Audio Codec File size : 59.7 MiB Duration : 4 min 57 s Overall bit rate mode : Variable Overall bit rate : 1 686 kb/s Album : Cowboy (2024 Expanded Edition) Album/Performer : Erasure Part : 1 Part/Total : 1 Track name : Heart of Glass (Live in Oxford; 2024 Remaster) Track name/Position : 28 Track name/Total : 28 Performer : Erasure Composer : Deborah Harry & Christopher Stein Producer : Mute, a BMG Company Label : Mute, a BMG Company Genre : Synthpop, New Wave Recorded date : 2024-05-31 ISRC : GB5KW2301127 Copyright : © 2024 Mute Records Ltd., a BMG Company ℗ 2024 Mute Records Ltd., a BMG Company Cover : Yes Cover type : Cover (front) Cover MIME : image/jpeg Comment : https://youtu.be/x34icYC8zA0 PRODUCER : GARETH JONES & Neil McLellan INVOLVEDPEOPLE : Andy Bell, Vocals - Vince Clarke, Instruments - Erasure, Performance, MainArtist - Deborah Harry, Composer, Writer - GARETH JONES, Producer - Christopher Stein, Composer, Writer - Neil McLellan, Producer - Phil Kinrade, Engineer ITUNESADVISORY : 0 MEDIATYPE : album UPC : 4050538919400 URL : https://www.qobuz.com/fr-fr/album/cowboy-erasure/z4jljp7macvec Audio Format : FLAC Format/Info : Free Lossless Audio Codec Duration : 4 min 57 s Bit rate mode : Variable Bit rate : 1 684 kb/s Channel(s) : 2 channels Channel layout : L R Sampling rate : 44.1 kHz Bit depth : 24 bits Compression mode : Lossless Stream size : 59.7 MiB (100%) MD5 of the unencoded content : 00000000000000000000000000000000 General Complete name : C:Deemix MusicErasure - 1997 - Cowboy (2024 Expanded Edition) FLAC (24bit-44.1kHz)Cover.jpg Format : JPEG File size : 839 KiB Image Format : JPEG Width : 1 500 pixels Height : 1 500 pixels Color space : YUV Chroma subsampling : 4:4:4 Bit depth : 8 bits Compression mode : Lossy Stream size : 839 KiB (100%) General Complete name : C:Deemix MusicErasure - 1997 - Cowboy (2024 Expanded Edition) FLAC (24bit-44.1kHz)foo_dr.txt File size : 4.92 KiB
https://youtu.be/x34icYC8zA0

Всего файлов в раздаче: 30 
01 - Rain (2024 Remaster).flac52.49 MB
02 - Worlds On Fire (2024 Remaster).flac44.91 MB
03 - Reach Out (2024 Remaster).flac46.20 MB
04 - In My Arms (2024 Remaster).flac43.83 MB
05 - Don't Say Your Love Is Killing Me (2024 Remaster).flac47.50 MB
06 - Precious (2024 Remaster).flac43.17 MB
07 - Treasure (2024 Remaster).flac37.65 MB
08 - Boy (2024 Remaster).flac45.49 MB
09 - How Can I Say (2024 Remaster).flac39.22 MB
10 - Save Me Darling (2024 Remaster).flac48.59 MB
Показать все файлы

Похожие раздачи по запросу - Erasure
2024-06-02 magnet Erasure - From Moscow to Mars [Remixes] (2019) FLAC 991.37 MB ↑ 0 ↓ 0
2024-06-01 magnet Erasure - Cowboy [Remastered Expanded Edition] (1997/2024) MP3 272.05 MB ↑ 0 ↓ 0

Кто качает (только для создателя раздачи и модераторов): Локальные пиры отсутствуют

Комментарии


Зарегистрируйтесь чтобы добавить комментарий
Торрент клиент
byTorrent - программа для загрузки торрент-файлов.

Скачать byTorrent.exe (1,5 МБ)

Скачать byTorrent.zip (0,6 МБ)

Поддержи torrent.by
российских рублей
(300 российских рублей это 4$)

Обратная связь rss

End game ©