↑↓torrent.by
Поиск
Логин:  Регистрация
Пароль:

Улыбка Бога, или Чисто одесская история / Ход котом, или Чисто одесская история (2008) HDTV 1080i

download Скачать торрент-файл   magnet Магнитная ссылка Размер: 8.14 GB Добавлен: 2024-06-02 17:00
Пиры будут получены из сети DHT
Последний сидер был замечен 2024-06-04 17:52
Оригинальное название: Улыбка Бога, или Чисто одесская история Год выпуска: 2008 Жанр: Комедия, фэнтези Режиссер: Владимир Алеников В ролях: Иван Жидков, Армен Джигарханян, Роман Карцев, Мария Горбань, Александр Панкратов-Чёрный, Тамара Тана, Нина Усатова, Сергей Мигицко, Вячеслав Гришечкин, Дмитрий Сергин О фильме: Богатый старый одессит Филипп Ольшанский, который в очередной раз собирается отойти в мир иной, созывает всю семью и объявляет о некоторых изменениях в завещании. Чтобы исполнить просьбу дедушки, его внуку Алэну приходится вылететь в Одессу. И здесь он попадает в череду приключений. Несмотря на то, что оставил в Америке свою прагматичную невесту, Алэн встречается с очаровательной рыжеволосой одесситкой и… Страна: Россия Продолжительность: 02:01:43 Файл Кодек: AVC Качество: HDTV 1080i Видео: 1920x1080, 25 fps, 8648 kbps Звук: AC3, 6 ch, 448 kbps
[+] MediaInfo: Общее Идентификатор : 1 (0x1) Полное имя : F:Новая папкаУлыбка Бога, или Чисто одесская история.2008.HDTV.(1080i).ts Формат : MPEG-TS Размер файла : 8,14 Гбайт Продолжительность : 2 ч. 1 м. Режим общего битрейта : Переменный Общий поток : 9574 Кбит/сек Видео Идентификатор : 321 (0x141) Идентификатор меню : 1 (0x1) Формат : AVC Формат/Информация : Advanced Video Codec Профиль формата : High@L4 Параметр CABAC формата : Да Параметр ReFrames формата : 3 кадра Параметр GOP формата : M=4, N=28 Идентификатор кодека : 27 Продолжительность : 2 ч. 1 м. Битрейт : 8648 Кбит/сек Ширина : 1920 пикселей Высота : 1080 пикселей Соотношение сторон : 16:9 Частота кадров : 25,000 кадров/сек Стандарт вещания : Component Цветовое пространство : YUV Субдискретизация насыщенности : 4:2:0 Битовая глубина : 8 бит Тип развёртки : Чересстрочная Метод сохранения типа развёртки : Раздельные поля Порядок развёртки : Верхнее поле первое Бит/(Пиксели*Кадры) : 0.167 Размер потока : 7,35 Гбайт (90%) Цветовой диапазон : Limited Основные цвета : BT.709 Характеристики трансфера : BT.709 Коэффициенты матрицы : BT.709 Аудио Идентификатор : 401 (0x191) Идентификатор меню : 1 (0x1) Формат : AC-3 Формат/Информация : Audio Coding 3 Расширение режима : CM (complete main) Параметр Endianness формата : Big Идентификатор кодека : 129 Продолжительность : 2 ч. 1 м. Вид битрейта : Постоянный Битрейт : 448 Кбит/сек Каналы : 2 канала Расположение каналов : Front: L R Частота : 48,0 КГц Частота кадров : 31,250 кадров/сек (1536 spf) Метод сжатия : С потерями Размер потока : 390 Мбайт (5%) Язык : English
[+] Скриншоты

Всего файлов в раздаче: 1 
Улыбка Бога, или Чисто одесская история.2008.HDTV.(1080i).ts8.14 GB

Похожие раздачи по запросу - Улыбка
2024-06-04 magnet Улыбка Бога, или Чисто одесская история / Ход котом, или Чисто одесская история (2008) DVDRip 2.05 GB ↑ 0 ↓ 0
2024-06-02 magnet Улыбка Бога, или Чисто одесская история / Ход котом, или Чисто одесская история (2008) WEBRip 1080p 4.04 GB ↑ 0 ↓ 0
2024-06-02 magnet Улыбка Бога, или Чисто одесская история (2008) WEBRip 1.46 GB ↑ 0 ↓ 0
2024-02-25 magnet Улыбка лисицы / Шпионя за Мариной / Spiando Marina (1992) DVDRip-AVC от ExKinoRay | P2 2.24 GB ↑ 0 ↓ 0

Кто качает (только для создателя раздачи и модераторов): Локальные пиры отсутствуют

Комментарии


Зарегистрируйтесь чтобы добавить комментарий
Торрент клиент
byTorrent - программа для загрузки торрент-файлов.

Скачать byTorrent.exe (1,5 МБ)

Скачать byTorrent.zip (0,6 МБ)

Поддержи torrent.by
российских рублей
(300 российских рублей это 4$)

Обратная связь rss

End game ©