↑↓torrent.by
Поиск
Логин:  Регистрация
Пароль:

Я не киллер / Hit Man (2023) WEB-DLRip 720p от селезень | D | Локализованная версия

download Скачать торрент-файл   magnet Магнитная ссылка Размер: 2.12 GB Раздают: 1 Качают: 5 Добавлен: 2024-06-02 17:00
Пиры будут получены из сети DHT
Последний сидер был замечен сегодня в 00:16
Информация о фильме Название: Я не киллер Оригинальное название: Hit Man Год выхода: 2023 Жанр: боевик, мелодрама, комедия, криминал Режиссер: Ричард Линклейтер В ролях: Глен Пауэлл, Адриа Архона, Ретта, Остин Амелио, Молли Бернард, Майк Маркофф, Бет Бартли, Рокси Ривера, Джулия Холт, Ивэн Холцман О фильме: Гэри Джонсон выдает себя за наемного убийцу, чтобы поймать настоящих преступников. Все шло по плану, пока в этой истории не появилась женщина. Страна: США Студия: AGC Studios, Aggregate Films, BarnStorm Productions, Cinetic Media, Detour Filmproduction, Detour Pictures, Monarch Media, Netflix, ShivHans Pictures Продолжительность: 01:54:54 Перевод: Дублированный | Мосфильм-Мастер Субтитры: Русские (Forced, хардсаб) Файл Формат: Matroska Качество: WEB-DLRip 720p | Локализованная версия Видео: 1280x536 at 24.000 fps, x264@L4.1, ~2254 kbps Аудио: AC3, 6 ch, ~384 kbps - | Русский | Формат субтитров: хардсаб ***Рип от: -=DoMiNo=- *** Дебандинг, зерно.
[+] M/Ix264 : frame I:1350 Avg QP:17.52 size: 57533 x264 : frame P:27067 Avg QP:18.45 size: 25267 x264 : frame B:137059 Avg QP:20.44 size: 8620 General Unique ID : 27060942573353026698375193697611912110 (0x145BBF7A7908762FD8C8ED9AE80793AE) Complete name : R:Hit.Man.2023.DUB.WEB-DLRip.720p.x264.seleZen.mkv Format : Matroska Format version : Version 4 File size : 2.12 GiB Duration : 1 h 54 min Overall bit rate : 2 640 kb/s Frame rate : 24.000 FPS Movie name : Hit.Man.2023.DUB.WEB-DLRip.720p.x264.seleZen Encoded date : 2024-06-02 07:19:51 UTC Writing application : mkvmerge v84.0 ('Sleeper') 64-bit Writing library : libebml v1.4.5 + libmatroska v1.7.1 Cover : Yes Attachments : cover.jpg / small_cover.jpg Video ID : 1 Format : AVC Format/Info : Advanced Video Codec Format profile : High@L4.1 Format settings : CABAC / 5 Ref Frames Format settings, CABAC : Yes Format settings, Reference : 5 frames Codec ID : V_MPEG4/ISO/AVC Duration : 1 h 54 min Bit rate : 2 254 kb/s Width : 1 280 pixels Height : 536 pixels Display aspect ratio : 2.39:1 Frame rate mode : Constant Frame rate : 24.000 FPS Color space : YUV Chroma subsampling : 4:2:0 Bit depth : 8 bits Scan type : Progressive Bits/(Pixel*Frame) : 0.137 Stream size : 1.81 GiB (85%) Title : -=DoMiNo=- Writing library : x264 core 164 r3191 -DoMiNo Encoding settings : cabac=1 / ref=5 / deblock=1:-1:-1 / analyse=0x3:0x133 / me=umh / subme=10 / psy=1 / psy_rd=1.00:0.05 / mixed_ref=1 / me_range=32 / chroma_me=1 / trellis=2 / 8x8dct=1 / cqm=0 / deadzone=21,11 / fast_pskip=0 / chroma_qp_offset=-3 / threads=17 / lookahead_threads=4 / sliced_threads=0 / nr=0 / decimate=1 / interlaced=0 / bluray_compat=0 / constrained_intra=0 / bframes=12 / b_pyramid=2 / b_adapt=2 / b_bias=0 / direct=3 / weightb=1 / open_gop=0 / weightp=2 / keyint=240 / keyint_min=24 / scenecut=40 / intra_refresh=0 / rc_lookahead=60 / rc=crf / mbtree=0 / crf=20.0 / qcomp=0.60 / qpmin=0 / qpmax=69 / qpstep=4 / vbv_maxrate=50000 / vbv_bufsize=62500 / crf_max=0.0 / nal_hrd=none / filler=0 / ip_ratio=1.35 / pb_ratio=1.25 / aq=1:1.00 Language : English Default : Yes Forced : No Audio ID : 2 Format : AC-3 Format/Info : Audio Coding 3 Commercial name : Dolby Digital Codec ID : A_AC3 Duration : 1 h 54 min Bit rate mode : Constant Bit rate : 384 kb/s Channel(s) : 6 channels Channel layout : L R C LFE Ls Rs Sampling rate : 48.0 kHz Frame rate : 31.250 FPS (1536 SPF) Compression mode : Lossy Stream size : 316 MiB (15%) Title : Dub Language : Russian Service kind : Complete Main Default : Yes Forced : No Dialog Normalization : -31 dB cmixlev : -3.0 dB surmixlev : -6 dB dialnorm_Average : -31 dB dialnorm_Minimum : -31 dB dialnorm_Maximum : -31 dB Menu 00:00:00.000 : en:Chapter 01 00:05:50.000 : en:Chapter 02 00:11:40.000 : en:Chapter 03 00:17:30.000 : en:Chapter 04 00:23:20.000 : en:Chapter 05 00:29:10.000 : en:Chapter 06 00:35:00.000 : en:Chapter 07 00:40:50.000 : en:Chapter 08 00:46:40.000 : en:Chapter 09 00:52:30.000 : en:Chapter 10 00:58:20.000 : en:Chapter 11 01:04:10.000 : en:Chapter 12 01:10:00.000 : en:Chapter 13 01:15:50.000 : en:Chapter 14 01:21:40.000 : en:Chapter 15 01:27:30.000 : en:Chapter 16 01:33:20.000 : en:Chapter 17 01:39:10.000 : en:Chapter 18 01:45:00.000 : en:Chapter 19 01:50:50.000 : en:Chapter 20
Релиз: Присоединяйся к: Кликай на баннеры.

Всего файлов в раздаче: 1 
Hit.Man.2023.DUB.WEB-DLRip.720p.x264.seleZen.mkv2.12 GB

Похожие раздачи по запросу - киллер
2024-06-09 magnet Я не киллер / Hit Man (2023) WEB-DL 1080p | D 7.37 GB ↑ 2 ↓ 15
2024-06-05 magnet Моя жена – киллер / Рольові ігри / Role Play (2023) WEB-DL 1080p | D | UKR 5.71 GB ↑ 0 ↓ 0
2024-06-02 magnet Я не киллер / Hit Man (2023) WEB-DLRip от MegaPeer | D | Локализованная версия 1.46 GB ↑ 1 ↓ 3
2024-06-02 magnet Я не киллер / Hit Man (2023) WEB-DL 1080p от селезень | D | Локализованная версия 4.55 GB ↑ 3 ↓ 8
2024-06-02 magnet Я не киллер / Hit Man (2023) WEB-DLRip-AVC от New-Team | D | Локализованная версия 1.75 GB ↑ 0 ↓ 0
2024-05-28 magnet Киллер. Побег из тюрьмы / Volkov Origin (2022) WEB-DLRip 720p от DoMiNo & селезень | D | MOYGOLOS 1.55 GB ↑ 0 ↓ 0
2024-05-27 magnet Киллер. Побег из тюрьмы / Volkov Origin (2022) WEB-DLRip от ELEKTRI4KA | D 1.37 GB ↑ 0 ↓ 0

Комментарии


Зарегистрируйтесь чтобы добавить комментарий
Торрент клиент
byTorrent - программа для загрузки торрент-файлов.

Скачать byTorrent.exe (1,5 МБ)

Скачать byTorrent.zip (0,6 МБ)

Поддержи torrent.by
российских рублей
(300 российских рублей это 4$)

Обратная связь rss

End game ©