↑↓torrent.by
Поиск
Логин:  Регистрация
Пароль:

Эрик / Eric [S01] (2024) WEB-DL 1080p от Jaskier | P

download Скачать торрент-файл   magnet Магнитная ссылка Размер: 17.94 GB Раздают: 0 Качают: 1 Добавлен: 2024-06-03 05:00
Пиры будут получены из сети DHT
Последний сидер был замечен 2024-06-12 16:17
Информация о фильме Название: Эрик Оригинальное название: Eric Год выхода: 2024 Жанр: триллер, драма, криминал Режиссер: Люси Форбс В ролях: Бенедикт Камбербэтч, Габи Хоффманн, Дэн Фоглер, МакКинли Белчер III, Ivan Morris Howe, Бамар Кане, Жозе Пиментан, Джефф Хефнер, Erika Soto, Дональд Сейдж Маккей О фильме: Нью-Йорк, 1980-е. Винсент — кукольник и автор популярного детского телешоу — пытается разыскать сына, который пропал по дороге в школу. Однажды Винсент находит рисунки сына, на которых изображено сказочное существо Эрик. Отчаявшийся отец становится одержим мыслью, что стоит показать Эрика по телевизору — и мальчик вернется. Тем временем семья и детективы замечают, что поведение мужчины становится все более опасным. Страна: Великобритания, США Студия: Atlantic Pictures (II), BCD Travel, Little Chick Продолжительность: ~00:55:00 Перевод: Профессиональный (многоголосый закадровый) Jaskier Файл Кодек: MKV Качество: WEB-DL 1080p Видео: AVC, 1920x1080 (16:9), 25.000 fps, ~4564 kbps Звук: Аудио 1: Русский, AC-3, 48 kHz, 6 ch, 384 kbps | Jaskier Аудио 2: Английский, E-AC-3 JOC, 48 kHz, 6 ch, 768 kbps Субтитры: Русские, Английские (SDH) Семпл
[+] MediaInfo General Unique ID : 246711215503962592750564851093271617282 (0xB99ADA0CA66DCBB7AC3C6B7F706A1F02) Complete name : E:TorrentEric.2024.S01.1080p.WEB.H264-JaskierEric.2024.S01E01.1080p.WEB.H264-Jaskier.mkv Format : Matroska Format version : Version 4 File size : 2.17 GiB Duration : 53 min 21 s Overall bit rate mode : Variable Overall bit rate : 5 832 kb/s Frame rate : 25.000 FPS Encoded date : 2024-06-01 15:03:41 UTC Writing application : mkvmerge v6.6.0 ('The Edge Of The In Between') built on Dec 1 2013 17:55:00 Writing library : libebml v1.3.0 + libmatroska v1.4.1 Video ID : 1 Format : AVC Format/Info : Advanced Video Codec Format profile : Main@L4 Format settings : CABAC / 3 Ref Frames Format settings, CABAC : Yes Format settings, Reference frames : 3 frames Codec ID : V_MPEG4/ISO/AVC Duration : 53 min 21 s Bit rate mode : Variable Bit rate : 4 564 kb/s Nominal bit rate : 5 000 kb/s Maximum bit rate : 7 500 kb/s Width : 1 920 pixels Height : 1 080 pixels Display aspect ratio : 16:9 Frame rate mode : Constant Frame rate : 25.000 FPS Original frame rate : 50.000 FPS Color space : YUV Chroma subsampling : 4:2:0 Bit depth : 8 bits Scan type : Progressive Bits/(Pixel*Frame) : 0.088 Stream size : 1.70 GiB (78%) Writing library : x264 core 148 r2727 7d026e8 Encoding settings : cabac=1 / ref=3 / deblock=1:0:0 / analyse=0x1:0x111 / me=umh / subme=10 / psy=1 / psy_rd=1.00:0.00 / mixed_ref=1 / me_range=24 / chroma_me=1 / trellis=2 / 8x8dct=0 / cqm=0 / deadzone=21,11 / fast_pskip=1 / chroma_qp_offset=-2 / threads=6 / lookahead_threads=1 / sliced_threads=0 / nr=0 / decimate=1 / interlaced=0 / bluray_compat=0 / stitchable=1 / constrained_intra=0 / bframes=2 / b_pyramid=0 / b_adapt=2 / b_bias=0 / direct=3 / weightb=1 / open_gop=0 / weightp=2 / keyint=250 / keyint_min=126 / scenecut=0 / intra_refresh=0 / rc_lookahead=50 / rc=2pass / mbtree=1 / bitrate=5000 / ratetol=1.0 / qcomp=0.50 / qpmin=6 / qpmax=51 / qpstep=4 / cplxblur=20.0 / qblur=0.5 / vbv_maxrate=7500 / vbv_bufsize=10000 / nal_hrd=vbr / filler=0 / ip_ratio=1.40 / aq=1:1.00 Default : Yes Forced : No Audio #1 ID : 2 Format : AC-3 Format/Info : Audio Coding 3 Commercial name : Dolby Digital Codec ID : A_AC3 Duration : 53 min 21 s Bit rate mode : Constant Bit rate : 384 kb/s Channel(s) : 6 channels Channel layout : L R C LFE Ls Rs Sampling rate : 48.0 kHz Frame rate : 31.250 FPS (1536 SPF) Compression mode : Lossy Stream size : 147 MiB (7%) Title : Jaskier Language : Russian Service kind : Complete Main Default : Yes Forced : No Dialog Normalization : -31 dB cmixlev : -4.5 dB surmixlev : -6 dB dialnorm_Average : -31 dB dialnorm_Minimum : -31 dB dialnorm_Maximum : -31 dB Audio #2 ID : 3 Format : E-AC-3 JOC Format/Info : Enhanced AC-3 with Joint Object Coding Commercial name : Dolby Digital Plus with Dolby Atmos Codec ID : A_EAC3 Duration : 53 min 21 s Bit rate mode : Constant Bit rate : 768 kb/s Channel(s) : 6 channels Channel layout : L R C LFE Ls Rs Sampling rate : 48.0 kHz Frame rate : 31.250 FPS (1536 SPF) Compression mode : Lossy Stream size : 293 MiB (13%) Title : Original Language : English Service kind : Complete Main Default : No Forced : No Complexity index : 16 Number of dynamic objects : 15 Bed channel count : 1 channel Bed channel configuration : LFE Dialog Normalization : -26 dB compr : -0.28 dB dialnorm_Average : -26 dB dialnorm_Minimum : -26 dB dialnorm_Maximum : -26 dB Text #1 ID : 4 Format : UTF-8 Codec ID : S_TEXT/UTF8 Codec ID/Info : UTF-8 Plain Text Language : Russian Default : No Forced : No Text #2 ID : 5 Format : UTF-8 Codec ID : S_TEXT/UTF8 Codec ID/Info : UTF-8 Plain Text Title : SDH Language : English Default : No Forced : No
[+] Скриншоты
Релиз от: Jaskier

Всего файлов в раздаче: 6 
Eric.2024.S01E01.1080p.WEB.H264-Jaskier.mkv2.17 GB
Eric.2024.S01E02.1080p.WEB.H264-Jaskier.mkv2.28 GB
Eric.2024.S01E03.1080p.WEB.H264-Jaskier.mkv3.42 GB
Eric.2024.S01E04.1080p.WEB.H264-Jaskier.mkv3.39 GB
Eric.2024.S01E05.1080p.WEB.H264-Jaskier.mkv3.31 GB
Eric.2024.S01E06.1080p.WEB.H264-Jaskier.mkv3.36 GB

Похожие раздачи по запросу - Эрик
2024-06-04 magnet Эрик / Eric [S01] (2024) WEB-DL-HEVC 2160p от NewComers | 4K | HDR | P 45.70 GB ↑ 0 ↓ 0
2024-06-04 magnet Эрик / Eric [S01] (2024) WEB-DL 1080p от NewComers | P 17.94 GB ↑ 0 ↓ 0
2024-06-02 magnet Эрик / Eric [01x01-03 из 06] (2024) WEB-DL 1080p от Jaskier | P 7.88 GB ↑ 0 ↓ 0
2024-05-31 magnet Эрик / Eric [S01] (2024) WEB-DLRip от MegaPeer | D | Digi Media 4.49 GB ↑ 1 ↓ 0
2024-05-30 magnet Эрик / Eric [S01] (2024) WEB-DL 1080p от EniaHD | D 19.96 GB ↑ 1 ↓ 3
2021-10-11 magnet Эрик Фримен - Учимся программировать с примерами на Python (2020) PDF 115.26 MB ↑ 0 ↓ 0

Комментарии


Зарегистрируйтесь чтобы добавить комментарий
Торрент клиент
byTorrent - программа для загрузки торрент-файлов.

Скачать byTorrent.exe (1,5 МБ)

Скачать byTorrent.zip (0,6 МБ)

Поддержи torrent.by
российских рублей
(300 российских рублей это 4$)

Обратная связь rss

End game ©