↑↓torrent.by
Поиск
Логин:  Регистрация
Пароль:

Конец верёвки / End of the Rope (2023) WEB-DL 1080p от New-Team | P | TVShows

download Скачать торрент-файл   magnet Магнитная ссылка Размер: 9.37 GB Раздают: 0 Качают: 1 Добавлен: 2024-06-03 05:00
Пиры будут получены из сети DHT
Последний сидер был замечен 2024-06-12 13:57
Конец верёвки / End of the Rope Год выпуска: 2023 Выпущено: США / Canticle Productions, D&N Cinematics, Polyphony Digital Жанр: вестерн, детектив, криминал Режиссер: Чарли Гриак / Charlie Griak В ролях: Джозеф Грей, Ник Сэкстон, Крис Билсма, Джозеф Безенек, Тиффани Корнуэлл, Ал Сакс, Кейли Стэнджер, Джей Престон, Меган Хэнсли, Чарльз О'Хавер, Кристин Уэбер, Вагнесса Гэмбл, Майк МакНил, Майлз Барнум, Кэмерон Гобел, Джейсон Дирс О фильме: 1931 год. Когда семья загадочным образом исчезает из города Шафер в Северной Дакоте, подозрение падает на батрака-социопата, и всё сообщество восстает, чтобы взять правосудие в свои руки. Продолжительность: 02:19:12 Перевод: Профессиональный (многоголосый, закадровый) | TVShows (Thx. SunOfABeach) Субтитры: английские Раздача от: Автор релиза: JNS82. Формат: MKV Качество: WEB-DL 1080p | AMZN Видео: MPEG-4 AVC, (16:9), 1920x1080, 8612 Кбит/с, 23,976 fps Аудио #1: 48 kHz, AC3 Dolby Digital, 3/2 (L,C,R,l,r) + LFE ch, ~ 384 kbps | RUS | Аудио #2: 48 kHz, E-AC3 Dolby Digital, 3/2 (L,C,R,l,r) + LFE ch, ~ 640 kbps | ENG |
[+] MediaInfoОбщее Уникальный идентификатор : 46176829147386565272627927359905411922 (0x22BD5573DCF3B8C2954BB9C8CB493352) Полное имя : D:TorrentsEnd.of.the.Rope.2023.1080p.AMZN_от New-Team.mkv Формат : Matroska Версия формата : Version 4 Размер файла : 9,37 Гбайт Продолжительность : 2 ч. 19 м. Общий поток : 9 639 Кбит/сек Название фильма : End.of.the.Rope.2023.1080p.AMZN_от New-Team Дата кодирования : UTC 2024-06-02 13:08:23 Программа кодирования : mkvmerge v79.0 ('Funeral Pyres') 64-bit Библиотека кодирования : libebml v1.4.4 + libmatroska v1.7.1 Видео Идентификатор : 1 Формат : AVC Формат/Информация : Advanced Video Codec Профиль формата : High@L4 Настройки формата : CABAC / 4 Ref Frames Параметр CABAC формата : Да Параметр RefFrames формата : 4 кадра Идентификатор кодека : V_MPEG4/ISO/AVC Продолжительность : 2 ч. 19 м. Вид битрейта : Постоянный Битрейт : 8 612 Кбит/сек Номинальный битрейт : 10 000 Кбит/сек Ширина : 1 920 пикселей Высота : 1 080 пикселей Соотношение сторон : 16:9 Режим частоты кадров : Постоянный Частота кадров : 23,976 (24000/1001) кадра/сек Цветовое пространство : YUV Субдискретизация насыщенности : 4:2:0 Битовая глубина : 8 бит Тип развёртки : Прогрессивная Бит/(Пиксели*Кадры) : 0.173 Размер потока : 8,37 Гбайт (89%) Default : Да Forced : Нет Цветовой диапазон : Limited Основные цвета : BT.709 Характеристики трансфера : BT.709 Коэффициенты матрицы : BT.709 Аудио #1 Идентификатор : 2 Формат : AC-3 Формат/Информация : Audio Coding 3 Коммерческое название : Dolby Digital Идентификатор кодека : A_AC3 Продолжительность : 2 ч. 19 м. Вид битрейта : Постоянный Битрейт : 384 Кбит/сек Каналы : 6 каналов Channel layout : L R C LFE Ls Rs Частота : 48,0 КГц Частота кадров : 31,250 кадров/сек (1536 SPF) Метод сжатия : С потерями Размер потока : 382 Мбайт (4%) Заголовок : MVO - TVShows Язык : Russian Service kind : Complete Main Default : Да Forced : Нет Аудио #2 Идентификатор : 3 Формат : E-AC-3 Формат/Информация : Enhanced AC-3 Коммерческое название : Dolby Digital Plus Идентификатор кодека : A_EAC3 Продолжительность : 2 ч. 19 м. Вид битрейта : Постоянный Битрейт : 640 Кбит/сек Каналы : 6 каналов Channel layout : L R C LFE Ls Rs Частота : 48,0 КГц Частота кадров : 31,250 кадров/сек (1536 SPF) Метод сжатия : С потерями Размер потока : 637 Мбайт (7%) Заголовок : Original Язык : English Service kind : Complete Main Default : Нет Forced : Нет Текст #1 Идентификатор : 4 Формат : UTF-8 Идентификатор кодека : S_TEXT/UTF8 Идентификатор кодека/Информация : UTF-8 Plain Text Продолжительность : 2 ч. 17 м. Битрейт : 40 бит/сек Count of elements : 1411 Размер потока : 40,9 Кбайт (0%) Заголовок : Язык : English Default : Нет Forced : Нет Текст #2 Идентификатор : 5 Формат : UTF-8 Идентификатор кодека : S_TEXT/UTF8 Идентификатор кодека/Информация : UTF-8 Plain Text Продолжительность : 2 ч. 18 м. Битрейт : 41 бит/сек Count of elements : 1499 Размер потока : 42,3 Кбайт (0%) Заголовок : SDH Язык : English Default : Нет Forced : Нет Меню 00:00:00.000 : en:Scene 01 02:19:07.000 : en:End Credits

Всего файлов в раздаче: 1 
End.of.the.Rope.2023.1080p.AMZN_от New-Team.mkv9.37 GB

Похожие раздачи по запросу - Конец
2024-06-05 magnet Южный парк: Конец ожирения / Південний Парк: Кінець ожиріння / South Park: The End of Obesity (2024) WEB-DL-HEVC 2160p | 4K | SDR | P, L1 | UKR 2.89 GB ↑ 0 ↓ 2
2024-06-04 magnet Конец романа / The End of the Affair (1999) WEB-DL 1080p | P 8.88 GB ↑ 0 ↓ 0
2024-06-03 magnet Конец верёвки / End of the Rope (2023) WEB-DLRip-AVC | P | TVShows 2.44 GB ↑ 1 ↓ 0
2024-06-03 magnet Конец верёвки / End of the Rope (2023) WEB-DLRip от MegaPeer | P | TVShows 1.46 GB ↑ 0 ↓ 1
2024-06-03 magnet Конец верёвки / End of the Rope (2023) WEB-DLRip от MegaPeer | P | TVShows 2.18 GB ↑ 0 ↓ 0
2024-06-03 magnet Конец верёвки / End of the Rope (2023) WEB-DL 720p от селезень | P | TVShows 5.00 GB ↑ 0 ↓ 0
2024-05-26 magnet Южный Парк: Конец ожирения / South Park: The End of Obesity [Specials] (2024) WEB-DL 1080p | HDrezka Studio, RuDub 1.70 GB ↑ 3 ↓ 4

Кто качает (только для создателя раздачи и модераторов):
ПользовательIP:портОтдалПринялОстатокСидируетТоррент клиентОбновился
1 Аноним 163.117.228.5:32000 0.00 B 5.45 GB 9.29 GB нет -qB4390- 00:20 2024-06-15

Комментарии


Зарегистрируйтесь чтобы добавить комментарий
Торрент клиент
byTorrent - программа для загрузки торрент-файлов.

Скачать byTorrent.exe (1,5 МБ)

Скачать byTorrent.zip (0,6 МБ)

Поддержи torrent.by
российских рублей
(300 российских рублей это 4$)

Обратная связь rss

End game ©