↑↓torrent.by
Поиск
Логин:  Регистрация
Пароль:

Emika - Haze [24Bit, Hi-Res] (2024) FLAC

download Скачать торрент-файл   magnet Магнитная ссылка Размер: 424.09 MB Добавлен: 2024-06-03 11:00
Пиры будут получены из сети DHT
Последний сидер был замечен 2024-06-03 16:44
Emika - Haze (2024) Жанр: Ambient, Garage, Future-Garage, UK-Garage Издание: 2024 Emika Records - EMKLP08 Источник: ссылка Продолжительность: 00:39:59 Кодек: FLAC 24/44.1 Битрейт: Lossless|WEB-DL Тип рипа: tracks Треклист: 01. ((star key)) 02. Harmony 03. HaZe 04. Skip 05. Ache 06. Writer 07. Smoke 08. Waltz 09. 4/4 10. Film 11. Low End 12. Shards 13. Rain 14. Lull 15. Haze (Piano) 16. Traum
[+] Дополнительная информация: Rottweil, Germany https://emika-official.bandcamp.com/music
[+] Отчёт Замер динамического диапазона: foobar2000 2.1.5 / Замер динамического диапазона (DR) 1.1.1 Дата отчёта: 2024-06-02 13:21:58 -------------------------------------------------------------------------------- Анализ: Emika / Haze -------------------------------------------------------------------------------- DR Пики RMS Продолжительность трека -------------------------------------------------------------------------------- DR6 -0.47 дБ -11.27 дБ 4:57 01-((star key)) DR7 -0.20 дБ -8.36 дБ 5:06 02-Harmony DR7 -0.30 дБ -9.00 дБ 3:17 03-HaZe DR20 -1.67 дБ -24.54 дБ 1:00 04-Skip DR10 -0.05 дБ -11.08 дБ 2:59 05-Ache DR12 -3.12 дБ -18.50 дБ 2:14 06-Writer DR9 0.00 дБ -11.84 дБ 3:14 07-Smoke DR8 0.00 дБ -10.33 дБ 2:32 08-Waltz DR8 0.00 дБ -11.15 дБ 2:54 09-4/4 DR11 -2.79 дБ -17.45 дБ 2:44 10-Film DR6 -0.20 дБ -9.93 дБ 2:59 11-Low End DR8 0.00 дБ -10.70 дБ 2:06 12-Shards DR7 -6.11 дБ -19.68 дБ 0:17 13-Rain DR13 -17.94 дБ -33.58 дБ 1:08 14-Lull DR10 -4.83 дБ -18.25 дБ 1:24 15-Haze (Piano) DR8 -5.74 дБ -16.00 дБ 1:08 16-Traum -------------------------------------------------------------------------------- Количество треков: 16 Реальные значения DR: DR9 Частота: 44100 Гц Каналов: 2 Разрядность: 24 Битрейт: 1004 кбит/с Кодек: FLAC ================================================================================

Всего файлов в раздаче: 17 
01 - ((star key)).flac54.53 MB
02 - Harmony.flac54.69 MB
03 - HaZe.flac35.57 MB
04 - Skip.flac10.23 MB
05 - Ache.flac33.53 MB
06 - Writer.flac21.79 MB
07 - Smoke.flac36.65 MB
08 - Waltz.flac25.74 MB
09 - 4_4.flac27.74 MB
10 - Film.flac25.46 MB
Показать все файлы

Кто качает (только для создателя раздачи и модераторов): Локальные пиры отсутствуют

Комментарии


Зарегистрируйтесь чтобы добавить комментарий
Торрент клиент
byTorrent - программа для загрузки торрент-файлов.

Скачать byTorrent.exe (1,5 МБ)

Скачать byTorrent.zip (0,6 МБ)

Поддержи torrent.by
российских рублей
(300 российских рублей это 4$)

Обратная связь rss

End game ©