↑↓torrent.by
Поиск
Логин:  Регистрация
Пароль:

Калимба [01x01-04 из 08] (2024) WEBRip-AVC от ExKinoRay

download Скачать торрент-файл   magnet Магнитная ссылка Размер: 2.32 GB Добавлен: 2024-06-03 11:00
Пиры будут получены из сети DHT
Последний сидер был замечен 2024-06-09 23:30
Информация о фильме Название: Калимба Год выхода: 2024 Жанр: Драма, детектив Режиссер: Нурбек Эген В ролях: Фёдор Бондарчук, Алёна Михайлова, Сергей Гармаш, Пётр Скворцов, Елизавета Шакира, Сергей Горошко, Константин Плотников (II), Юлия Волкова, Сергей Городничий, София Сучкова, Михаил Хмуров, Камилла Келлер, Тимофей Ольков, Людмила Юлова, Елена Радевич, Ева Уильямс, Никита Брусов, Степан Пивкин О фильме: Амбициозный профессор психиатрии Виктор Мещерский проводит опасный психологический эксперимент, в рамках которого под ложным предлогом запирает в подвале жертв и их обидчиков, скрывая свои истинные цели. Последующее расследование расскажет о настоящих мотивах профессора, и свяжет воедино запутанные истории всех участников жестокого эксперимента. Страна: Россия Студия: Okko, Норм Продакшн Продолжительность: 4 x ~ 00:50:00 Язык: Русский Формат: MKV Качество: WEBRip-AVC Видео: MPEG-4 AVC, 720x302, 25.000 fps, 1350 Kbps, 0.248 bit/pixel Аудио: 48 kHz, AC3, 3/2 (L,C,R,l,r) + LFE ch, ~384.00 kbps avg (с цензурой) RUS Субтитры: Русские (Full (Enigma))
[+] МИGeneral Unique ID : 207974257667445041213136200541801650876 (0x9C766292A8CA66DD8B11E7BE53219ABC) Complete name : D:Kalimba.S01.2024.WEB-DL.AVC.ExKinoRayKalimba.S01.E01.2024.WEB-DL.AVC.ExKinoRay.mkv Format : Matroska Format version : Version 2 File size : 573 MiB Duration : 46 min Overall bit rate : 1 735 kb/s Movie name : Калимба 01 (2024) from ExKinoRay Encoded date : UTC 2024-05-21 23:32:07 Writing application : mkvmerge v5.6.0 ('Kenya Kane') built on May 27 2012 16:44:04 Writing library : libebml v1.2.3 + libmatroska v1.3.0 Video ID : 1 Format : AVC Format/Info : Advanced Video Codec Format profile : High@L4.1 Format settings, CABAC : Yes Format settings, ReFrames : 10 frames Codec ID : V_MPEG4/ISO/AVC Duration : 46 min Bit rate : 1 350 kb/s Width : 720 pixels Height : 302 pixels Display aspect ratio : 2.40:1 Frame rate mode : Constant Frame rate : 25.000 FPS Color space : YUV Chroma subsampling : 4:2:0 Bit depth : 8 bits Scan type : Progressive Bits/(Pixel*Frame) : 0.248 Stream size : 435 MiB (76%) Writing library : x264 core 164 r3107+58M ae98796 t_mod_New Encoding settings : cabac=1 / ref=10 / deblock=1:-2:-2 / analyse=0x3:0x133 / me=umh / subme=10 / psy=1 / fade_compensate=0.00 / psy_rd=1.00:0.00 / mixed_ref=1 / me_range=32 / chroma_me=1 / trellis=2 / 8x8dct=1 / cqm=0 / deadzone=21,11 / fast_pskip=0 / chroma_qp_offset=-2 / threads=9 / lookahead_threads=2 / sliced_threads=0 / nr=0 / decimate=0 / interlaced=0 / bluray_compat=0 / constrained_intra=0 / fgo=0 / bframes=10 / b_pyramid=2 / b_adapt=2 / b_bias=0 / direct=3 / weightb=1 / open_gop=0 / weightp=2 / keyint=250 / keyint_min=25 / scenecut=40 / intra_refresh=0 / rc=2pass / mbtree=0 / bitrate=1350 / ratetol=1.0 / qcomp=0.60 / qpmin=0:0:0 / qpmax=69:69:69 / qpstep=4 / cplxblur=20.0 / qblur=0.5 / ip_ratio=1.40 / pb_ratio=1.30 / aq=1:1.00 / aq-sensitivity=10.00 / aq-factor=1.00:1.00:1.00 / aq2=0 / aq3=0 Default : Yes Forced : No Audio ID : 2 Format : AC-3 Format/Info : Audio Coding 3 Mode extension : CM (complete main) Format settings, Endianness : Big Codec ID : A_AC3 Duration : 46 min Bit rate mode : Constant Bit rate : 384 kb/s Channel(s) : 6 channels Channel positions : Front: L C R, Side: L R, LFE Sampling rate : 48.0 kHz Frame rate : 31.250 FPS (1536 spf) Compression mode : Lossy Stream size : 127 MiB (22%) Language : Russian Default : Yes Forced : No Text ID : 3 Format : UTF-8 Codec ID : S_TEXT/UTF8 Codec ID/Info : UTF-8 Plain Text Title : Full (Enigma) Language : Russian Default : No Forced : No
Релиз от: Автор релиза:

Всего файлов в раздаче: 4 
Kalimba.S01.E01.2024.WEB-DL.AVC.ExKinoRay.mkv572.68 MB
Kalimba.S01.E02.2024.WEB-DL.AVC.ExKinoRay.mkv614.31 MB
Kalimba.S01.E03.2024.WEB-DL.AVC.ExKinoRay.mkv599.88 MB
Kalimba.S01.E04.2024.WEB-DL.AVC.ExKinoRay.mkv591.27 MB

Похожие раздачи по запросу - Калимба
Вчера magnet Калимба [01x01-06 из 08] (2024) WEBRip 720p от ExKinoRay 7.87 GB ↑ 0 ↓ 0
Вчера magnet Калимба [01х01-06 из 08] (2024) WEBRip-AVC от Files-х 3.97 GB ↑ 0 ↓ 0
Вчера magnet Калимба / Сезон: 1 / Серии: 1-6 из 8 [2024, драма, детектив, триллер, WEBRip-AVC] от Aleksan55 3.95 GB ↑ 0 ↓ 1
Вчера magnet Калимба [01x01-06 из 08] (2024) WEBRip 1080p от ExKinoRay 11.42 GB ↑ 0 ↓ 0
Вчера magnet Калимба [01x01-06 из 08] (2024) WEBRip-AVC от ExKinoRay 3.45 GB ↑ 1 ↓ 0
2024-06-08 magnet Калимба [01x01-05 из 08] (2024) WEBRip 720p от ExKinoRay 6.56 GB ↑ 0 ↓ 0
2024-06-08 magnet Калимба [01x01-05 из 08] (2024) WEBRip-AVC от ExKinoRay 2.88 GB ↑ 0 ↓ 0

Кто качает (только для создателя раздачи и модераторов): Локальные пиры отсутствуют

Комментарии


Зарегистрируйтесь чтобы добавить комментарий
Торрент клиент
byTorrent - программа для загрузки торрент-файлов.

Скачать byTorrent.exe (1,5 МБ)

Скачать byTorrent.zip (0,6 МБ)

Поддержи torrent.by
российских рублей
(300 российских рублей это 4$)

Обратная связь rss

End game ©