↑↓torrent.by
Поиск
Логин:  Регистрация
Пароль:

Конец верёвки / End of the Rope (2023) WEB-DLRip-AVC | P | TVShows

download Скачать торрент-файл   magnet Магнитная ссылка Размер: 2.44 GB Раздают: 1 Качают: 0 Добавлен: il68k 2024-06-03 16:11
Пиры будут получены из сети DHT
Последний сидер был замечен сегодня в 11:44
Информация о фильме Название: Конец верёвки Оригинальное название: End of the Rope Год выхода: 2023 Жанр: вестерн, детектив, криминал Режиссер: Чарли Гриак В ролях: Джозеф Грей, Ник Сэкстон, Крис Билсма, Джозеф Безенек, Тиффани Корнуэлл, Ал Сакс, Кейли Стэнджер, Джей Престон, Меган Хэнсли, Чарльз О'Хавер, Кристин Уэбер, Вагнесса Гэмбл, Майк МакНил О фильме: 1931 год. Когда семья загадочным образом исчезает из города Шафер в Северной Дакоте, подозрение падает на батрака-социопата, и всё сообщество восстает, чтобы взять правосудие в свои руки. Страна: США Студия: D&N Cinematics, Canticle Productions, Polyphony Digital Продолжительность: 02:19:12 Перевод: Профессиональный (многоголосый закадровый) | TVShows Файл Кодек: H.264 Качество: WEB-DLRip-AVC Видео: MPEG-4 AVC, 1677 Kbps, 1024x576 (16:9), 23.976 fps, 0.119 bit/pixel, High@L4.1 Звук 1: 48 kHz, AC3 Dolby Digital, 3/2 (L, C, R, l, r) + LFE ch, ~384 kbps | TVShows Звук 2: 48 kHz, AC3 Dolby Digital, 3/2 (L, C, R, l, r) + LFE ch, ~448 kbps | Английский Субтитры: английские (full, SDH) Семпл
[+] Скриншоты
[+] MediaInfo raw : 1024x576p 1:1 @ 24000/1001 fps (cfr) x264 : using SAR=1/1 x264 : using cpu capabilities: MMX2 SSE2Fast SSSE3 SSE4.2 AVX FMA3 BMI2 AVX2 x264 : profile High, level 4.1, 4:2:0, 8-bit x264 : frame I:1643 Avg QP:12.74 size: 54427 x264 : frame P:54562 Avg QP:14.98 size: 17761 x264 : frame B:144055 Avg QP:16.79 size: 4810 x264 : consecutive B-frames: 2.5% 4.0% 10.3% 77.0% 2.3% 1.1% 0.2% 0.4% 0.1% 0.1% 0.1% 0.2% 0.2% 1.4% x264 : mb I I16..4: 13.4% 51.5% 35.0% x264 : mb P I16..4: 3.1% 19.0% 5.7% P16..4: 27.1% 17.6% 11.1% 0.0% 0.0% skip:16.3% x264 : mb B I16..4: 0.5% 2.3% 0.3% B16..8: 23.3% 9.1% 2.7% direct: 6.1% skip:55.8% L0:39.9% L1:46.6% BI:13.6% x264 : 8x8 transform intra:67.8% inter:46.4% x264 : direct mvs spatial:99.9% temporal:0.1% x264 : coded y, uvDC, uvAC intra: 70.9% 74.8% 59.3% inter: 13.4% 11.7% 5.5% x264 : i16 v, h, dc, p: 41% 20% 11% 28% x264 : i8 v, h, dc, ddl, ddr, vr, hd, vl, hu: 23% 18% 17% 5% 6% 8% 7% 8% 9% x264 : i4 v, h, dc, ddl, ddr, vr, hd, vl, hu: 29% 17% 11% 6% 8% 9% 8% 6% 6% x264 : i8c dc, h, v, p: 51% 21% 19% 9% x264 : Weighted P-Frames: Y:5.7% UV:3.4% x264 : ref P L0: 65.0% 5.7% 14.7% 4.3% 2.9% 1.9% 1.6% 0.9% 0.8% 0.6% 0.6% 0.5% 0.5% 0.1% 0.0% x264 : ref B L0: 82.1% 9.4% 3.0% 1.5% 1.0% 0.8% 0.6% 0.5% 0.4% 0.3% 0.2% 0.1% x264 : ref B L1: 96.7% 3.3% x264 : kb/s:1677.47 x264 : encoded 200260 frames, 28.16 fps, 1677.47 kb/s =============================================================== General Unique ID: 276526510601471389140791933679907305572 (0xD009119787EC67ABFF11180E9F5AF864) Complete name: C:Konec.veryovki.2023.AMZN.WEB-DLRip.AVC.mkv Format: Matroska Format version: Version 4 File size: 2.44 GiB Duration: 2 h 19 min Overall bit rate: 2 512 kb/s Frame rate: 23.976 FPS Movie name: End of the Rope (2023) WEB-DLRip-AVC _ vitolinform Encoded date: 2024-06-03 00:46:59 UTC Writing application: mkvmerge v85.0 ('Shame For You') 64-bit Writing library: libebml v1.4.5 + libmatroska v1.7.1 Attachments: poster.jpg / log.log Video ID: 1 Format: AVC Format/Info: Advanced Video Codec Format profile: High@L4.1 Format settings: CABAC / 13 Ref Frames Format settings, CABAC: Yes Format settings, Reference frames: 13 frames Codec ID: V_MPEG4/ISO/AVC Duration: 2 h 19 min Bit rate: 1 677 kb/s Width: 1 024 pixels Height: 576 pixels Display aspect ratio: 16:9 Frame rate mode: Constant Frame rate: 23.976 (24000/1001) FPS Color space: YUV Chroma subsampling: 4:2:0 Bit depth: 8 bits Scan type: Progressive Bits/(Pixel*Frame): 0.119 Stream size: 1.63 GiB (67%) Title: Конец верёвки / End of the Rope (2023) Writing library: x264 core 164 r3172 c1c9931 Encoding settings: cabac=1 / ref=13 / deblock=1:-3:-3 / analyse=0x3:0x113 / me=umh / subme=10 / psy=1 / psy_rd=1.00:0.15 / mixed_ref=1 / me_range=32 / chroma_me=1 / trellis=2 / 8x8dct=1 / cqm=0 / deadzone=21, 11 / fast_pskip=0 / chroma_qp_offset=-3 / threads=18 / lookahead_threads=4 / sliced_threads=0 / nr=0 / decimate=0 / interlaced=0 / bluray_compat=0 / constrained_intra=0 / bframes=13 / b_pyramid=2 / b_adapt=2 / b_bias=0 / direct=3 / weightb=1 / open_gop=0 / weightp=2 / keyint=250 / keyint_min=24 / scenecut=40 / intra_refresh=0 / rc_lookahead=60 / rc=crf / mbtree=0 / crf=19.0 / qcomp=0.60 / qpmin=0 / qpmax=69 / qpstep=4 / vbv_maxrate=50000 / vbv_bufsize=62500 / crf_max=0.0 / nal_hrd=none / filler=0 / ip_ratio=1.40 / pb_ratio=1.30 / aq=1:1.00 Language: English Default: Yes Forced: No Color range: Limited Color primaries: BT.709 Transfer characteristics: BT.709 Matrix coefficients: BT.709 Audio #1 ID: 2 Format: AC-3 Format/Info: Audio Coding 3 Commercial name: Dolby Digital Codec ID: A_AC3 Duration: 2 h 19 min Bit rate mode: Constant Bit rate: 384 kb/s Channel(s): 6 channels Channel layout: L R C LFE Ls Rs Sampling rate: 48.0 kHz Frame rate: 31.250 FPS (1536 SPF) Compression mode: Lossy Stream size: 382 MiB (15%) Title: MVO | TVShows Language: Russian Service kind: Complete Main Default: Yes Forced: No AC3_metadata cmixlev: -3.0 dB surmixlev: -3 dB Audio #2 ID: 3 Format: AC-3 Format/Info: Audio Coding 3 Commercial name: Dolby Digital Codec ID: A_AC3 Duration: 2 h 19 min Bit rate mode: Constant Bit rate: 448 kb/s Channel(s): 6 channels Channel layout: L R C LFE Ls Rs Sampling rate: 48.0 kHz Frame rate: 31.250 FPS (1536 SPF) Compression mode: Lossy Stream size: 446 MiB (18%) Title: English Language: English Service kind: Complete Main Default: No Forced: No AC3_metadata cmixlev: -3.0 dB surmixlev: -3 dB Text #1 ID: 4 Format: UTF-8 Codec ID: S_TEXT/UTF8 Codec ID/Info: UTF-8 Plain Text Duration: 2 h 17 min Bit rate: 40 b/s Frame rate: 0.172 FPS Count of elements: 1411 Stream size: 40.9 KiB (0%) Title: Full Language: English Default: No Forced: No Text #2 ID: 5 Format: UTF-8 Codec ID: S_TEXT/UTF8 Codec ID/Info: UTF-8 Plain Text Duration: 2 h 18 min Bit rate: 41 b/s Frame rate: 0.181 FPS Count of elements: 1499 Stream size: 42.3 KiB (0%) Title: SDH Language: English Default: No Forced: No Menu 00:00:00.000: Scene 01 02:19:07.000: End Credits
Rip by vitolinform

Всего файлов в раздаче: 1 
Konec.veryovki.2023.AMZN.WEB-DLRip.AVC.mkv2.44 GB

Похожие раздачи по запросу - Конец
2024-06-05 magnet Южный парк: Конец ожирения / Південний Парк: Кінець ожиріння / South Park: The End of Obesity (2024) WEB-DL-HEVC 2160p | 4K | SDR | P, L1 | UKR 2.89 GB ↑ 0 ↓ 0
2024-06-04 magnet Конец романа / The End of the Affair (1999) WEB-DL 1080p | P 8.88 GB ↑ 0 ↓ 0
2024-06-03 magnet Конец верёвки / End of the Rope (2023) WEB-DL 1080p от New-Team | P | TVShows 9.37 GB ↑ 0 ↓ 0
2024-06-03 magnet Конец верёвки / End of the Rope (2023) WEB-DLRip от MegaPeer | P | TVShows 1.46 GB ↑ 0 ↓ 0
2024-06-03 magnet Конец верёвки / End of the Rope (2023) WEB-DLRip от MegaPeer | P | TVShows 2.18 GB ↑ 0 ↓ 0
2024-06-03 magnet Конец верёвки / End of the Rope (2023) WEB-DL 720p от селезень | P | TVShows 5.00 GB ↑ 0 ↓ 0
2024-05-26 magnet Южный Парк: Конец ожирения / South Park: The End of Obesity [Specials] (2024) WEB-DL 1080p | HDrezka Studio, RuDub 1.70 GB ↑ 3 ↓ 1

Кто качает (только для создателя раздачи и модераторов):
ПользовательIP:портОтдалПринялОстатокСидируетТоррент клиентОбновился
1 Аноним 178.17.183.115:31858 9.33 MB 0.00 B 0.00 B да -UT360W- 11:44 2024-06-16

Комментарии


Зарегистрируйтесь чтобы добавить комментарий
Торрент клиент
byTorrent - программа для загрузки торрент-файлов.

Скачать byTorrent.exe (1,5 МБ)

Скачать byTorrent.zip (0,6 МБ)

Поддержи torrent.by
российских рублей
(300 российских рублей это 4$)

Обратная связь rss

End game ©