↑↓torrent.by
Поиск
Логин:  Регистрация
Пароль:

Мотофайтеры / Motofighters [S01] (2021) WEB-DL 1080p | D

download Скачать торрент-файл   magnet Магнитная ссылка Размер: 11.27 GB Добавлен: 2024-06-03 17:00
Пиры будут получены из сети DHT
Последний сидер был замечен 2024-06-03 17:00
Название: Мотофайтеры Оригинальное название: Motofighters Год выпуска: 2021 Жанр: мультфильм, детский, спорт Выпущено: Китай Режиссер: Юн Чэнь / Yong Chen В ролях: Лю Сяотун, Чен Дажи Описание: Братья Леон и Дени любят соревноваться на спиннерах. У них очень разные характеры, но когда ребята сталкиваются с серьёзными соперниками, они объединяются и помогать друг другу. Доктору Стрэнджу — разработчику оригинальной игры в спиннеры — нравятся их боевые качества и забота друг о друге. Он берет братьев в ученики и отправляет на соревнования. Мечта Леона и Дени — выиграть чемпионат по спиннерам. Но они также привлекают внимание профессора Винда, соперника доктора Стрэнджа. Чтобы доказать, что его спиннеры мощнее, он добавляет в них секретный чип для увеличения мощности. Продолжительность: 30 x 00:13:00 Перевод: Профессиональный (дублированный) The Kitchen Russia Качество: WEB-DL 1080p (KP) Формат: MKV Видео: AVC, 1920x1080, 25 fps, ~ 4000 kbps Аудио: AAC, 48 KHz, 2 ch, 192 kbps Субтитры: отсутствуют
[+] Подробные технические данныеGeneral Unique ID : 60764890645235401783881267943226663154 (0x2DB6E46A3DAB8F8B47E43886FA72E0F2) Complete name : D:Motofighters.S01.1080pМотофайтеры - Сезон 1 - Серия 01 - Удар грома.mkv Format : Matroska Format version : Version 4 File size : 402 MiB Duration : 13 min 9 s Overall bit rate : 4 272 kb/s Encoded date : UTC 2024-06-01 06:13:57 Writing application : mkvmerge v62.0.0 ('Apollo') 64-bit Writing library : libebml v1.4.2 + libmatroska v1.6.4 Video ID : 1 Format : AVC Format/Info : Advanced Video Codec Format profile : High@L4 Format settings : CABAC / 4 Ref Frames Format settings, CABAC : Yes Format settings, Reference frames : 4 frames Codec ID : V_MPEG4/ISO/AVC Duration : 13 min 9 s Bit rate : 4 075 kb/s Nominal bit rate : 6 000 kb/s Width : 1 920 pixels Height : 1 080 pixels Display aspect ratio : 16:9 Frame rate mode : Constant Frame rate : 25.000 FPS Color space : YUV Chroma subsampling : 4:2:0 Bit depth : 8 bits Scan type : Progressive Bits/(Pixel*Frame) : 0.079 Stream size : 384 MiB (95%) Writing library : x264 core 157 Encoding settings : cabac=1 / ref=4 / deblock=1:0:0 / analyse=0x3:0x133 / me=umh / subme=10 / psy=1 / psy_rd=1.00:0.00 / mixed_ref=1 / me_range=24 / chroma_me=1 / trellis=2 / 8x8dct=1 / cqm=0 / deadzone=21,11 / fast_pskip=1 / chroma_qp_offset=-2 / threads=34 / lookahead_threads=5 / sliced_threads=0 / nr=0 / decimate=1 / interlaced=0 / bluray_compat=0 / stitchable=1 / constrained_intra=0 / bframes=8 / b_pyramid=2 / b_adapt=2 / b_bias=0 / direct=3 / weightb=1 / open_gop=0 / weightp=2 / keyint=250 / keyint_min=25 / scenecut=40 / intra_refresh=0 / rc_lookahead=100 / rc=abr / mbtree=1 / bitrate=6000 / ratetol=1.0 / qcomp=0.60 / qpmin=0 / qpmax=69 / qpstep=4 / vbv_maxrate=6600 / vbv_bufsize=12000 / nal_hrd=none / filler=0 / ip_ratio=1.40 / aq=1:1.00 Default : Yes Forced : No Audio ID : 2 Format : AAC LC Format/Info : Advanced Audio Codec Low Complexity Codec ID : A_AAC-2 Duration : 13 min 9 s Bit rate : 192 kb/s Channel(s) : 2 channels Channel layout : L R Sampling rate : 48.0 kHz Frame rate : 46.875 FPS (1024 SPF) Compression mode : Lossy Stream size : 18.3 MiB (5%) Language : Russian Default : Yes Forced : No
[+] Скриншоты
Не уходите сразу же после скачивания

Всего файлов в раздаче: 30 
Мотофайтеры - Сезон 1 - Серия 01 - Удар грома.mkv402.15 MB
Мотофайтеры - Сезон 1 - Серия 02 - Секретная лаборатория.mkv351.71 MB
Мотофайтеры - Сезон 1 - Серия 03 - Соревнования начинаются.mkv386.35 MB
Мотофайтеры - Сезон 1 - Серия 04 - Огненный сокол.mkv364.77 MB
Мотофайтеры - Сезон 1 - Серия 05 - Быстрый результат.mkv369.82 MB
Мотофайтеры - Сезон 1 - Серия 06 - Сильный противник.mkv381.27 MB
Мотофайтеры - Сезон 1 - Серия 07 - Возвращение Рин.mkv368.78 MB
Мотофайтеры - Сезон 1 - Серия 08 - Секретный приём.mkv396.01 MB
Мотофайтеры - Сезон 1 - Серия 09 - Детектив Денни.mkv388.38 MB
Мотофайтеры - Сезон 1 - Серия 10 - Спринт-Пионер.mkv391.20 MB
Показать все файлы

Кто качает (только для создателя раздачи и модераторов): Локальные пиры отсутствуют

Комментарии


Зарегистрируйтесь чтобы добавить комментарий
Торрент клиент
byTorrent - программа для загрузки торрент-файлов.

Скачать byTorrent.exe (1,5 МБ)

Скачать byTorrent.zip (0,6 МБ)

Поддержи torrent.by
российских рублей
(300 российских рублей это 4$)

Обратная связь rss

End game ©