↑↓torrent.by
Поиск
Логин:  Регистрация
Пароль:

Пуленепробиваемый / Bulletproof (1996) WEB-DLRip-AVC от DoMiNo | D, P | Open Matte

download Скачать торрент-файл   magnet Магнитная ссылка Размер: 1.66 GB Добавлен: 2024-06-03 17:00
Пиры будут получены из сети DHT
Последний сидер был замечен 2024-06-03 17:00
Информация о фильме Название: Пуленепробиваемый Оригинальное название: Bulletproof Год выхода: 1996 Жанр: боевик, комедия, криминал Режиссер: Эрнест Р. Дикерсон В ролях: Дэймон Уайанс, Адам Сэндлер, Джеймс Каан, Джип Свенсон, Джеймс Фарентино, Кристен Уилсон, Ларри МакКой, Аллен Коверт, Билл Нанн, Марк Робертс О фильме: Рок Китс и Арчи Моузес - лучшие друзья. Год назад Моузес, мелкий воришка и мошенник, взял Китса «в дело». С тех пор они не расставались и вместе совершили целый ряд небольших преступлений. Все меняется, когда друзья оказываются вовлеченными в крупномасштабную операцию, проводимую наркобароном Фрэнком Колтоном. Рок Китс на самом деле оказывается агентом полиции, его настоящее имя Джек Картер. Полицейскому под прикрытием Картеру не удается арестовать организатора операции Колтона, поэтому он пытается арестовать своего друга Моузеса. Моузес стреляет в Картера и сбегает с места преступления. Вскоре полиция настигает Моузеса. Он соглашается дать показания против наркобарона Колтона при одном условии: к месту проведения судебного слушания его должен проводить бывший друг Китс-Картер. Вскоре друзья встречаются вновь и вместе отправляются в опасное путешествие. Выживут ли они? Выживет ли их дружба? Страна: США Выпущено: Universal Pictures, Brillstein-Grey Entertainment, Robert Simonds Productions Продолжительность: 01:24:22 Перевод: Профессиональный (дублированный), профессиональный (многоголосый закадровый) Субтитры: Русские (форс., полные), английские Файл Формат: Matroska Качество: WEB-DLRip-AVC | Open Matte Видео: 1024x576 (16x9) at 23.976 fps, x264@L4.1, ~1980 kbps Аудио #1: AC3, 6 ch, 448 Kbps - Русский (DUB Netflix) Аудио #2: AC3, 2 ch, 192 Kbps - Русский (DUB -ТВ-3) Аудио #3: AC3, 2 ch, 192 Kbps - Русский (MVO СТС (студия "Фильм Экспорт")) Формат субтитров: softsub (SRT) ***Релиз от: -=DoMiNo=-
[+] M/Ix264 : frame I:962 Avg QP:16.63 size: 59445 x264 : frame P:26284 Avg QP:18.31 size: 22489 x264 : frame B:93883 Avg QP:21.19 size: 6414 x264 : consecutive B-frames: 1.5% 1.9% 6.3% 32.8% 16.7% 29.8% 4.6% 3.6% 1.0% 0.7% 0.4% 0.4% 0.2% General Format : Matroska Format version : Version 4 File size : 1.66 GiB Duration : 1 h 24 min Overall bit rate : 2 810 kb/s Movie name : Пуленепробиваемый.(1996).WEB-DLRip-AVC.O.M. Encoded date : UTC 2020-12-08 19:02:11 Writing application : mkvmerge v51.0.0 ('I Wish') 64-bit Writing library : libebml v1.4.0 + libmatroska v1.6.2 Cover : Yes Attachments : Cover.jpg / Cover 2.jpg Video ID : 1 Format : AVC Format/Info : Advanced Video Codec Format profile : High@L4.1 Format settings : CABAC / 11 Ref Frames Format settings, CABAC : Yes Format settings, Reference : 11 frames Codec ID : V_MPEG4/ISO/AVC Duration : 1 h 24 min Bit rate : 1 980 kb/s Width : 1 024 pixels Height : 576 pixels Display aspect ratio : 16:9 Frame rate mode : Constant Frame rate : 23.976 (24000/1001) FPS Color space : YUV Chroma subsampling : 4:2:0 Bit depth : 8 bits Scan type : Progressive Bits/(Pixel*Frame) : 0.140 Stream size : 1.16 GiB (70%) Title : -=DoMiNo=- Writing library : x264 core 161 r3027 4121277 Encoding settings : cabac=1 / ref=11 / deblock=1:-2:-2 / analyse=0x3:0x133 / me=umh / subme=10 / psy=1 / psy_rd=1.00:0.20 / mixed_ref=1 / me_range=32 / chroma_me=1 / trellis=2 / 8x8dct=1 / cqm=0 / deadzone=21,11 / fast_pskip=1 / chroma_qp_offset=-3 / threads=6 / lookahead_threads=1 / sliced_threads=0 / nr=0 / decimate=1 / interlaced=0 / bluray_compat=0 / constrained_intra=0 / bframes=12 / b_pyramid=2 / b_adapt=2 / b_bias=0 / direct=1 / weightb=1 / open_gop=0 / weightp=2 / keyint=250 / keyint_min=23 / scenecut=40 / intra_refresh=0 / rc_lookahead=60 / rc=crf / mbtree=0 / crf=19.0 / qcomp=0.60 / qpmin=0 / qpmax=69 / qpstep=4 / vbv_maxrate=50000 / vbv_bufsize=62500 / crf_max=0.0 / nal_hrd=none / filler=0 / ip_ratio=1.40 / pb_ratio=1.30 / aq=1:1.00 Language : English Default : Yes Forced : No Color range : Limited Color primaries : BT.709 Transfer characteristics : BT.709 Matrix coefficients : BT.709 Audio #1 ID : 2 Format : AC-3 Format/Info : Audio Coding 3 Commercial name : Dolby Digital Codec ID : A_AC3 Duration : 1 h 24 min Bit rate mode : Constant Bit rate : 448 kb/s Channel(s) : 6 channels Channel layout : L R C LFE Ls Rs Sampling rate : 48.0 kHz Frame rate : 31.250 FPS (1536 SPF) Compression mode : Lossy Stream size : 270 MiB (16%) Title : DUB_ Language : Russian Service kind : Complete Main Default : Yes Forced : No Audio #2 ID : 3 Format : AC-3 Format/Info : Audio Coding 3 Commercial name : Dolby Digital Codec ID : A_AC3 Duration : 1 h 24 min Bit rate mode : Constant Bit rate : 192 kb/s Channel(s) : 2 channels Channel layout : L R Sampling rate : 48.0 kHz Frame rate : 31.250 FPS (1536 SPF) Compression mode : Lossy Stream size : 116 MiB (7%) Title : DUB_ Language : Russian Service kind : Complete Main Default : No Forced : No Audio #3 ID : 4 Format : AC-3 Format/Info : Audio Coding 3 Commercial name : Dolby Digital Codec ID : A_AC3 Duration : 1 h 24 min Bit rate mode : Constant Bit rate : 192 kb/s Channel(s) : 2 channels Channel layout : L R Sampling rate : 48.0 kHz Frame rate : 31.250 FPS (1536 SPF) Compression mode : Lossy Stream size : 116 MiB (7%) Title : MVO_ Language : Russian Service kind : Complete Main Default : No Forced : No Text #1 ID : 5 Format : UTF-8 Codec ID : S_TEXT/UTF8 Codec ID/Info : UTF-8 Plain Text Duration : 40 min 7 s Bit rate : 2 b/s Count of elements : 19 Stream size : 743 Bytes (0%) Title : forced Language : Russian Default : Yes Forced : No Text #2 ID : 6 Format : UTF-8 Codec ID : S_TEXT/UTF8 Codec ID/Info : UTF-8 Plain Text Duration : 1 h 19 min Bit rate : 97 b/s Count of elements : 1037 Stream size : 56.4 KiB (0%) Title : Полные (присутствует мат!) Language : Russian Default : No Forced : No Text #3 ID : 7 Format : UTF-8 Codec ID : S_TEXT/UTF8 Codec ID/Info : UTF-8 Plain Text Duration : 1 h 19 min Bit rate : 71 b/s Count of elements : 1228 Stream size : 41.7 KiB (0%) Title : Full Language : English Default : No Forced : No Text #4 ID : 8 Format : UTF-8 Codec ID : S_TEXT/UTF8 Codec ID/Info : UTF-8 Plain Text Duration : 1 h 23 min Bit rate : 74 b/s Count of elements : 1175 Stream size : 45.4 KiB (0%) Title : Full v.2 Language : English Default : No Forced : No Text #5 ID : 9 Format : UTF-8 Codec ID : S_TEXT/UTF8 Codec ID/Info : UTF-8 Plain Text Duration : 1 h 19 min Bit rate : 72 b/s Count of elements : 1320 Stream size : 42.3 KiB (0%) Title : Full (SDH) Language : English Default : No Forced : No Menu 00:00:00.000 : en:Chapter 01 00:03:21.722 : en:Chapter 02 00:10:17.951 : en:Chapter 03 00:12:25.204 : en:Chapter 04 00:17:19.122 : en:Chapter 05 00:21:09.102 : en:Chapter 06 00:27:00.411 : en:Chapter 07 00:34:55.093 : en:Chapter 08 00:45:42.824 : en:Chapter 09 00:56:15.217 : en:Chapter 10 01:00:42.598 : en:Chapter 11 01:07:25.333 : en:Chapter 12 01:10:44.491 : en:Chapter 13 01:13:43.461 : en:Chapter 14 01:16:11.317 : en:Chapter 15 01:17:48.634 : en:Chapter 16
[+] Примечание & Сравнения:Исходник видео WEB-DL Amazon Open Matte-версия фильма имеет большее наполнение кадра по сравнению с Blu-ray
[+] Скриншоты

Всего файлов в раздаче: 1 
Пуленепробиваемый.(1996).WEB-DLRip-AVC.O.M.[-=DoMiNo=-].mkv1.66 GB

Похожие раздачи по запросу - Пуленепробиваемый
2024-06-03 magnet Пуленепробиваемый / Bulletproof Monk (2003) BDRip 1080p от NNNB | D, A 7.74 GB ↑ 0 ↓ 0
2024-06-03 magnet Пуленепробиваемый / Bulletproof Monk (2003) BDRip-HEVC 1080p от RIPS CLUB | D, A 6.14 GB ↑ 0 ↓ 0
2024-06-03 magnet Пуленепробиваемый / Bulletproof Monk (2003) BDRip 720p от KORSAR | P, P2, A | GER Transfer 1К4.81 GB ↑ 0 ↓ 0
2024-06-03 magnet Пуленепробиваемый / Пуленепробиваемый монах / Bulletproof Monk (2003) WEB-DLRip-AVC от DoMiNo | D | Open Matte 2.18 GB ↑ 0 ↓ 0
2024-06-03 magnet Пуленепробиваемый / Bulletproof Monk (2003) WEB-DLRip от Scarabey | Open Matte | D 1.45 GB ↑ 0 ↓ 0

Кто качает (только для создателя раздачи и модераторов): Локальные пиры отсутствуют

Комментарии


Зарегистрируйтесь чтобы добавить комментарий
Торрент клиент
byTorrent - программа для загрузки торрент-файлов.

Скачать byTorrent.exe (1,5 МБ)

Скачать byTorrent.zip (0,6 МБ)

Поддержи torrent.by
российских рублей
(300 российских рублей это 4$)

Обратная связь rss

End game ©