↑↓torrent.by
Поиск
Логин:  Регистрация
Пароль:

Бессонница / Insomnia [01x01-03 из 06] (2024) WEB-DL 1080p | TVShows

download Скачать торрент-файл   magnet Магнитная ссылка Размер: 5.12 GB Добавлен: 2024-06-03 17:00
Пиры будут получены из сети DHT
Последний сидер был замечен 2024-06-03 17:00
Название: Бессонница Оригинальное название: Insomnia Год выхода: 2024 Жанр: Триллер, драма Режиссер: Бёркур Сигторссон В ролях: Вики МакКлюр, Том Каллен, Смайл Бродуэлл, Индия Фоулер, Лиэнн Бест, Коринна Марлоу, Линдси Маршал, Джад Харрисон, Энтони Калф, Мишель Боннар, Иэн Коннингхэм, Лара Лемон, Эми Марстон, Никола Харрисон, Билли Гадсон и др. Описание сериала: Эмме кажется, что она сходит с ума. За две недели до сорокалетия она начинает страдать от бессонницы — так же, как когда-то страдала ее мама. Для той все закончилось в ночь, когда ей исполнилось сорок, и она испытала жестокий психотический срыв. Теперь Эмма боится, что с ней случится что-то подобное… Страна: Великобритания Студия: Left Bank Pictures, Sony Pictures Television Продолжительность: ~0:45:00 Перевод: Профессиональный (многоголосый, закадровый) TVShows Субтитры: Английские Файл Формат: MKV Качество: WEB-DL (1080p) Видео: 1920x1080 (16:9), 23,976 fps, AVC (х264), High@L4, ~4500 Kbps avg, 0.091 bit/pixel Аудио RUS: 48 kHz, E-AC3, 3/2 (L,C,R,l,r) + LFE ch, ~384 kbps avg Аудио ENG: 48 kHz, E-AC3, 3/2 (L,C,R,l,r) + LFE ch, ~192 kbps avg
[+] Название серий01. Мамочка? / Mummy? 02. Дурная кровь / Bad Blood 03. Эта семья такая испорченная / This Family is so Fucked Up
[+] MediaInfoОбщее Уникальный идентификатор : 27160106482316666508013376317295989097 (0x146ED8A2F7F8286D40DBBEE3F3849169) Полное имя : Insomnia.2024.S01E01.WEB-DL.1080p.TVShows.mkv Формат : Matroska Версия формата : Version 4 Размер файла : 1,64 Гбайт Продолжительность : 47 мин. 5 с. Общий битрейт : 4 984 Кбит/сек Частота кадров : 23,976 кадра/сек Дата кодирования : 2024-05-29 04:19:07 UTC Программа кодирования : mkvmerge v68.0.0 ('The Curtain') 64-bit Библиотека кодирования : libebml v1.4.2 + libmatroska v1.6.4 Видео Идентификатор : 1 Формат : AVC Формат/Информация : Advanced Video Codec Профиль формата : High@L4 Настройки формата : CABAC / 4 Ref Frames Параметр CABAC формата : Да Параметр RefFrames формата : 4 кадра Идентификатор кодека : V_MPEG4/ISO/AVC Продолжительность : 47 мин. 5 с. Битрейт : 4 500 Кбит/сек Ширина : 1 920 пикселей Высота : 1 080 пикселей Соотношение сторон дисплея : 16:9 Режим частоты кадров : Постоянный Частота кадров : 23,976 (24000/1001) кадра/сек Цветовое пространство : YUV Цветовая субдискретизация : 4:2:0 Битовая глубина : 8 бит Тип развёртки : Прогрессивная Бит/(Пиксели*Кадры) : 0.091 Размер потока : 1,45 Гбайт (88%) Библиотека кодирования : x264 core 164 r3107 a8b68eb Параметры библиотеки кодирования : cabac=1 / ref=4 / deblock=1:0:0 / analyse=0x3:0x113 / me=hex / subme=8 / psy=1 / psy_rd=1.00:0.00 / mixed_ref=1 / me_range=16 / chroma_me=1 / trellis=2 / 8x8dct=1 / cqm=0 / deadzone=21,11 / fast_pskip=1 / chroma_qp_offset=-2 / threads=24 / lookahead_threads=4 / sliced_threads=0 / nr=0 / decimate=1 / interlaced=0 / bluray_compat=0 / stitchable=1 / constrained_intra=0 / bframes=3 / b_pyramid=2 / b_adapt=1 / b_bias=0 / direct=3 / weightb=1 / open_gop=0 / weightp=2 / keyint=24 / keyint_min=2 / scenecut=0 / intra_refresh=0 / rc_lookahead=24 / rc=2pass / mbtree=1 / bitrate=4500 / ratetol=1.0 / qcomp=0.60 / qpmin=0 / qpmax=69 / qpstep=4 / cplxblur=20.0 / qblur=0.5 / vbv_maxrate=5400 / vbv_bufsize=4500 / nal_hrd=none / filler=0 / ip_ratio=1.40 / aq=1:1.00 По умолчанию : Да Принудительно : Нет Цветовой диапазон : Limited Основные цвета : BT.709 Характеристики трансфера : BT.709 Коэффициенты матрицы : BT.709 Аудио #1 Идентификатор : 2 Формат : AC-3 Формат/Информация : Audio Coding 3 Коммерческое название : Dolby Digital Идентификатор кодека : A_AC3 Продолжительность : 47 мин. 5 с. Вид битрейта : Постоянный Битрейт : 384 Кбит/сек Канал(-ы) : 6 каналов Расположение каналов : L R C LFE Ls Rs Частота дискретизации : 48,0 КГц Частота кадров : 31,250 кадров/сек (1536 SPF) Метод сжатия : С потерями Размер потока : 129 Мбайт (8%) Язык : Русский По умолчанию : Да Принудительно : Нет Нормализация звука речи : -31 dB cmixlev : -4.5 dB surmixlev : -6 dB dialnorm_Average : -31 dB dialnorm_Minimum : -31 dB dialnorm_Maximum : -31 dB Аудио #2 Идентификатор : 3 Формат : E-AC-3 Формат/Информация : Enhanced AC-3 Коммерческое название : Dolby Digital Plus Идентификатор кодека : A_EAC3 Продолжительность : 47 мин. 5 с. Вид битрейта : Постоянный Битрейт : 192 Кбит/сек Канал(-ы) : 6 каналов Расположение каналов : L R C LFE Ls Rs Частота дискретизации : 48,0 КГц Частота кадров : 31,250 кадров/сек (1536 SPF) Метод сжатия : С потерями Размер потока : 64,7 Мбайт (4%) Язык : Английский По умолчанию : Нет Принудительно : Нет Нормализация звука речи : -24 dB compr : -0.28 dB dmixmod : Lo/Ro ltrtcmixlev : -3.0 dB ltrtsurmixlev : -3.0 dB lorocmixlev : -3.0 dB lorosurmixlev : -3.0 dB dialnorm_Average : -24 dB dialnorm_Minimum : -24 dB dialnorm_Maximum : -24 dB Текст Идентификатор : 4 Формат : UTF-8 Идентификатор кодека : S_TEXT/UTF8 Идентификатор кодека/Информация : UTF-8 Plain Text Продолжительность : 45 мин. 56 с. Битрейт : 56 бит/сек Частота кадров : 0,222 кадр/сек Число элементов : 613 Размер потока : 19,0 КиБ (0%) Заголовок : English (United Kingdom) Язык : Английский По умолчанию : Нет Принудительно : Нет
[+] Скриншоты

Всего файлов в раздаче: 3 
Insomnia.2024.S01E01.WEB-DL.1080p.TVShows.mkv1.64 GB
Insomnia.2024.S01E02.WEB-DL.1080p.TVShows.mkv1.59 GB
Insomnia.2024.S01E03.WEB-DL.1080p.TVShows.mkv1.89 GB

Похожие раздачи по запросу - Бессонница
2024-06-14 magnet Бессонница / Insomnia [01x01-04 из 06] (2024) WEB-DL 1080p | TVShows 7.29 GB ↑ 0 ↓ 1
2024-05-29 magnet Бессонница / Insomnia [01x01-02 из 06] (2024) WEB-DL 1080p | TVShows 3.23 GB ↑ 0 ↓ 0

Кто качает (только для создателя раздачи и модераторов): Локальные пиры отсутствуют

Комментарии


Зарегистрируйтесь чтобы добавить комментарий
Торрент клиент
byTorrent - программа для загрузки торрент-файлов.

Скачать byTorrent.exe (1,5 МБ)

Скачать byTorrent.zip (0,6 МБ)

Поддержи torrent.by
российских рублей
(300 российских рублей это 4$)

Обратная связь rss

End game ©