↑↓torrent.by
Поиск
Логин:  Регистрация
Пароль:

Шимпанзе / Chimpanzee (2012) BDRip 1080p | P1

download Скачать торрент-файл   magnet Магнитная ссылка Размер: 9.53 GB Добавлен: 2024-06-03 17:00
Пиры будут получены из сети DHT
Последний сидер был замечен 2024-06-03 21:01
Шимпанзе / Chimpanzee «For Oscar, every day is an adventure.» Страна: Танзания, США Студия: Great Ape Productions Жанр: документальный Год выпуска: 2012 Продолжительность: 01:18:15 Перевод: Одноголосый закадровый, студия "Омикрон" Оригинальная аудиодорожка: английская Русские субтитры: есть Режиссер: Аластер Фовергилл, Марк Линфилд / Alastair Fothergill, Mark Linfield Ведущий: Тим Аллен «Шимпанзе» — это удивительная история личных побед и семейных отношений. В непролазных чащах дождевых лесов Африки вы познакомитесь с очаровательным молодым шимпанзе Оскаром, жизнь которого полна новых впечатлений. Весь мир кажется непоседе Оскару и его друзьям увлекательной игрой. Во всем животном царстве не найдется, пожалуй, более любопытных, игривых, всегда готовых к новым открытиям созданий, обожающих передразнивать всех вокруг. Необыкновенно четкие и детальные съемки позволят вам с близкого расстояния наблюдать за перемещениями Оскара и его семьи по огромному лесу, пережить многие драматические события их жизни. Эти отважные и обаятельные приматы обязательно покорят ваши сердца. Тип релиза: BDRip 1080p Контейнер: MKV Видео кодек: x264 Аудио кодек: AC3 Видео: 1920x1080 at 23.976fps, x264@L4.1, 14.4 Mbps avg Аудио#1: Russian: 48 kHz, DTS, 3/2 (L,C,R,l,r) + LFE ch, ~1510 kbps avg | Одноголосый закадровый, студия "Омикрон" | Аудио#2: English: 48 kHz, DTS, 3/2 (L,C,R,l,r) + LFE ch, ~1510 kbps avg Субтитры: Russian, English
[+] Скриншоты
[+] MIОбщее Уникальный идентификатор : 214028166538833773720280579279131186725 (0xA10453532D89F1279425E4B41B531625) Полное имя : D:трекерChimpanzee.2012.BluRay.1080p.Rus.Eng.mkv Формат : Matroska Версия формата : Version 2 Размер файла : 9,53 Гбайт Продолжительность : 1 ч. 18 м. Общий поток : 17,4 Мбит/сек Дата кодирования : UTC 2012-10-03 12:15:59 Программа кодирования : mkvmerge v4.0.0 ('The Stars were mine') сборка от Jun 6 2010 16:18:42 Библиотека кодирования : libebml v1.0.0 + libmatroska v1.0.0 Видео Идентификатор : 1 Формат : AVC Формат/Информация : Advanced Video Codec Профиль формата : High@L4.1 Параметр CABAC формата : Да Параметр ReFrames формата : 4 кадра Идентификатор кодека : V_MPEG4/ISO/AVC Продолжительность : 1 ч. 18 м. Битрейт : 14,4 Мбит/сек Ширина : 1920 пикселей Высота : 1080 пикселей Соотношение сторон : 16:9 Режим частоты кадров : Постоянный Частота кадров : 23,976 кадра/сек Цветовое пространство : YUV Субдискретизация насыщенности : 4:2:0 Битовая глубина : 8 бит Тип развёртки : Прогрессивная Бит/(Пиксели*Кадры) : 0.290 Размер потока : 7,69 Гбайт (81%) Заголовок : Chimpanzee 2012 Библиотека кодирования : x264 core 120 r2146 bcd41db Настройки программы : cabac=1 / ref=4 / deblock=1:-3:-3 / analyse=0x3:0x113 / me=umh / subme=10 / psy=1 / psy_rd=1.05:0.10 / mixed_ref=1 / me_range=32 / chroma_me=1 / trellis=2 / 8x8dct=1 / cqm=0 / deadzone=21,11 / fast_pskip=0 / chroma_qp_offset=-2 / threads=8 / sliced_threads=0 / nr=0 / decimate=1 / interlaced=0 / bluray_compat=0 / constrained_intra=0 / bframes=6 / b_pyramid=2 / b_adapt=2 / b_bias=0 / direct=3 / weightb=1 / open_gop=0 / weightp=2 / keyint=250 / keyint_min=23 / scenecut=40 / intra_refresh=0 / rc=2pass / mbtree=0 / bitrate=14423 / ratetol=1.0 / qcomp=0.70 / qpmin=0 / qpmax=69 / qpstep=4 / cplxblur=20.0 / qblur=0.5 / ip_ratio=1.40 / pb_ratio=1.30 / aq=2:1.00 Язык : English Default : Нет Forced : Нет Аудио #1 Идентификатор : 2 Формат : DTS Формат/Информация : Digital Theater Systems Идентификатор кодека : A_DTS Продолжительность : 1 ч. 18 м. Вид битрейта : Постоянный Битрейт : 1510 Кбит/сек Каналы : 6 каналов Расположение каналов : Front: L C R, Side: L R, LFE Частота : 48,0 КГц Битовая глубина : 24 бит Метод сжатия : С потерями Размер потока : 845 Мбайт (9%) Заголовок : Russian DTS 5.1 Язык : Russian Default : Да Forced : Нет Аудио #2 Идентификатор : 3 Формат : DTS Формат/Информация : Digital Theater Systems Идентификатор кодека : A_DTS Продолжительность : 1 ч. 18 м. Вид битрейта : Постоянный Битрейт : 1510 Кбит/сек Каналы : 6 каналов Расположение каналов : Front: L C R, Side: L R, LFE Частота : 48,0 КГц Битовая глубина : 24 бит Метод сжатия : С потерями Размер потока : 845 Мбайт (9%) Заголовок : English DTS 5.1 Язык : English Default : Нет Forced : Нет Текст #1 Идентификатор : 4 Формат : UTF-8 Идентификатор кодека : S_TEXT/UTF8 Идентификатор кодека/Информация : UTF-8 Plain Text Заголовок : Russian Subtitles Язык : Russian Default : Нет Forced : Нет Текст #2 Идентификатор : 5 Формат : UTF-8 Идентификатор кодека : S_TEXT/UTF8 Идентификатор кодека/Информация : UTF-8 Plain Text Заголовок : English Subtitles Язык : English Default : Нет Forced : Нет Меню 00:00:00.000 : :00:00:00.000 00:03:41.388 : :00:03:41.388 00:08:46.109 : :00:08:46.109 00:13:32.645 : :00:13:32.645 00:19:07.229 : :00:19:07.229 00:25:03.585 : :00:25:03.585 00:30:22.612 : :00:30:22.612 00:33:15.285 : :00:33:15.285 00:36:21.471 : :00:36:21.471 00:39:11.641 : :00:39:11.641 00:44:43.014 : :00:44:43.014 00:47:24.425 : :00:47:24.425 00:50:35.824 : :00:50:35.824 00:53:40.884 : :00:53:40.884 00:59:57.260 : :00:59:57.260 01:05:05.902 : :01:05:05.902 01:07:56.281 : :01:07:56.281 01:11:43.132 : :01:11:43.132
[+] Дополнительно о фильме:
[+] Знаете ли вы, что...
[+] Исходник:
[+] Технические детали съёмки:

Всего файлов в раздаче: 1 
Chimpanzee.2012.BluRay.1080p.Rus.Eng.mkv9.53 GB

Похожие раздачи по запросу - Шимпанзе
2024-06-03 magnet Шимпанзе / Chimpanzee (2012) HDRip | P1 1.37 GB ↑ 0 ↓ 0

Кто качает (только для создателя раздачи и модераторов): Локальные пиры отсутствуют

Комментарии


Зарегистрируйтесь чтобы добавить комментарий
Торрент клиент
byTorrent - программа для загрузки торрент-файлов.

Скачать byTorrent.exe (1,5 МБ)

Скачать byTorrent.zip (0,6 МБ)

Поддержи torrent.by
российских рублей
(300 российских рублей это 4$)

Обратная связь rss

End game ©