↑↓torrent.by
Поиск
Логин:  Регистрация
Пароль:

Простоквашино [05x01-18 из 26] (2023) WEB-DL 1080p от DoMiNo

download Скачать торрент-файл   magnet Магнитная ссылка Размер: 4.55 GB Добавлен: 2024-06-04 05:00
Пиры будут получены из сети DHT
Последний сидер был замечен 2024-06-04 05:00
Информация о фильме Название: Простоквашино Год выхода: 2023 Жанр: Мультфильм, семейный Режиссёры: Михаил Солошенко, Евгения Жиркова, Анна Кузина, Софья Кравцова, Анастасия Воронина, Иван Шпульников, Владимир Торопчин, Светлана Мардаголимова, Юлия Байгулова, Алексей Введенский, Ринат Газизов, Савва Голубков, Александра Евсеева, Мария Чайка, Софья Сильвестрова, Павел Финоженков, Анастасия Савкина Роли озвучивали: Антон Табаков, Гарик Сукачев, Павел Деревянко, Никита Волков, Алексей Онежен, Мигель Родригез, Энджел Жуков, Иван Охлобыстин, Юлия Меньшова, Андрей Тенетко, Ольга Голованова, Беата Сухова, Лев Кузин, Татьяна Васильева, Александр Плющев, Михаил Солошенко, Николай Дроздов, Александр Гудков, Дмитрий Оленин, Юлия Яблонская, Елизавета Бугулова, Елена Шульман, Диомид Виноградов, Виктор Гусев, Сергей Жуков, Людмила Чеботина О фильме: Продолжение мультипликационного советского хита о приключениях Дяди Федора. Казалось, никакие бури внешнего мира не смогут поколебать привычный и размеренный ход деревенской жизни Простоквашино. Время как будто застыло. Все так же каждое утро Матроскин дегустирует свежее молоко, полученное от своей любимицы - коровы Мурки. Все так же Шарик проводит время в окрестных лесах, «фотоохотясь» на редкую дичь. Правда, теперь он научился выкладывать фотографии своей добычи в интернет. И все так же, при каждой возможности, их навещает Дядя Федор. И тогда они весело и дружно проводят время своей мужской компанией. И когда им уже стало казаться, что так будет всегда, внезапно все изменилось с появлением одной маленькой девочки, родной сестры Дяди Фёдора. И имя этой девочки – Вера Павловна. Страна: Россия Продолжительность: ~00:06:30 серия Перевод: Не требуется Файл Формат: MKV Качество: WEB-DL 1080p Видео: MPEG-4 AVC, ~4757 Кбит/с, 1920x1080 Аудио: 48 kHz, AC3 Dolby Digital, 2/0 (L,R) ch, ~192 kbps Субтитры: отсутствуют ***Релиз от: -=DoMiNo=-.
[+] Список серий:1. Курорт 2. Круглая Земля 3. Шарик в космосе 4. Музыкальный вызов 5. Блуждающие огоньки 6. Граф Печкин 7. Умный шлем 8. Машина времени 9. Кризис среднего роста 10. Морская дуэль 11. Вежливый Печкин 12. Опасный Шарик 13. Телепорт 14. Операция ДРВП 15. Восьмое марта 16. Сбежавшая посылка 17. Парад планет Спецвыпуск. Не просто выборы 18. Таинственный похититель
[+] M/IGeneral Complete name : E:03 – Шарик в космосе_WEB_DL.1080p.mkv Format : Matroska Format version : Version 4 File size : 241 MiB Duration : 6 min 44 s Overall bit rate : 4 985 kb/s Frame rate : 25.000 FPS Writing application : Lavf Writing library : Lavf Copyright : -=DoMiNo=- ErrorDetectionType : Per level 1 Attachments : poster.jpg Language : und Video ID : 1 Format : AVC Format/Info : Advanced Video Codec Format profile : High@L4 Format settings : CABAC / 4 Ref Frames Format settings, CABAC : Yes Format settings, Reference : 4 frames Codec ID : V_MPEG4/ISO/AVC Duration : 6 min 44 s Bit rate : 4 693 kb/s Width : 1 920 pixels Height : 1 080 pixels Display aspect ratio : 16:9 Frame rate mode : Constant Frame rate : 25.000 FPS Color space : YUV Chroma subsampling : 4:2:0 Bit depth : 8 bits Scan type : Progressive Bits/(Pixel*Frame) : 0.091 Stream size : 226 MiB (94%) Default : Yes Forced : No Color range : Limited Color primaries : BT.709 Transfer characteristics : BT.709 Matrix coefficients : BT.709 Audio ID : 2 Format : AC-3 Format/Info : Audio Coding 3 Commercial name : Dolby Digital Codec ID : A_AC3 Duration : 6 min 44 s Bit rate mode : Constant Bit rate : 192 kb/s Channel(s) : 2 channels Channel layout : L R Sampling rate : 48.0 kHz Frame rate : 31.250 FPS (1536 SPF) Bit depth : 32 bits Compression mode : Lossy Stream size : 9.26 MiB (4%) Service kind : Complete Main Default : Yes Forced : No

Всего файлов в раздаче: 19 
01 – Курорт Простоквашино_WEB_DL.1080p.mkv238.83 MB
02 – Круглая Земля_WEB_DL.1080p.mkv244.09 MB
03 – Шарик в космосе_WEB_DL.1080p.mkv240.54 MB
04 – Музыкальный вызов_WEB_DL.1080p.mkv242.03 MB
05 – Блуждающие огоньки_WEB_DL.1080p.mkv243.34 MB
06 – Граф Печкин_WEB_DL.1080p.mkv248.92 MB
07-Умный шлем_WEB_DL.1080p.mkv240.48 MB
08-Машина времени_WEB_DL.1080p.mkv239.66 MB
09-Кризис среднего роста_WEB_DL.1080p.mkv248.90 MB
10-Морская дуэль_WEB_DL.1080p.mkv241.71 MB
Показать все файлы

Похожие раздачи по запросу - Простоквашино
2024-06-04 magnet Простоквашино [05x01-18 из 26] (2023) WEB-DLRip 720p от DoMiNo 1.98 GB ↑ 0 ↓ 0
2023-07-10 magnet Простоквашино [01-04x01-102 из 106 + Бонусы] (2018-2023) WEB-DLRip 720p от DoMiNo 12.73 GB ↑ 0 ↓ 0
2021-09-05 magnet Простоквашино [01-03x01-55 из 82] (2018-2021) WEB-DLRip 720p 6.96 GB ↑ 1 ↓ 0

Кто качает (только для создателя раздачи и модераторов): Локальные пиры отсутствуют

Комментарии


Зарегистрируйтесь чтобы добавить комментарий
Торрент клиент
byTorrent - программа для загрузки торрент-файлов.

Скачать byTorrent.exe (1,5 МБ)

Скачать byTorrent.zip (0,6 МБ)

Поддержи torrent.by
российских рублей
(300 российских рублей это 4$)

Обратная связь rss

End game ©