↑↓torrent.by
Поиск
Логин:  Регистрация
Пароль:

Копи царя Соломона / King Solomon's Mines (1985) BDRip-HEVC 1080p от RIPS CLUB | P, P2, A, L1 | DEU Transfer | Remastered

download Скачать торрент-файл   magnet Магнитная ссылка Размер: 12.80 GB Добавлен: 2024-06-04 05:00
Пиры будут получены из сети DHT
Последний сидер был замечен 2024-06-04 20:14
Название: Копи царя Соломона Оригинальное название: King Solomon's Mines Год производства: 1985 Производство: США / Cannon Group, Cannon Productions, Cinema '84, Golan / Globus Production, Limelight Жанр: боевик, мелодрама, комедия, приключения Режиссёр: Дж. Ли Томпсон В ролях: Ричард Чемберлен, Шэрон Стоун, Герберт Лом, Джон Рис-Дэвис, Кен Гампу, Джун Бузелези, Сэм Уильямс, Шайке Офир, Фиделис Чеза, Мик Лесли О фильме: Отец главной героини отправляется на поиски бриллиантовых копей царя Соломона и пропадает без вести. Очаровательная Джесси Хьюстон затевает рискованное сафари для его спасения. Кто же будет её проводником? Легендарный солдат удачи, известный как Куотермейн. Чтобы добраться до сокровищ и опередить кровожадного соперника, им приходится преодолеть множество препятствий: от голодных каннибалов и гигантских пауков до зыбучих песков и озёр бурлящей лавы. Но нет преград, способных остановить любящие сердца! Продолжительность: 01:39:59 Перевод: многоголосый профессиональный, двухголосый профессиональный, авторский, любительский одноголосый Качество: BDRip-HEVC 1080p Кодек: HEVC (x265) Видео: 1920x816, ~15.8 Mbps, HEVC (Main10@L.4.1@High) 10 бит Звук: Аудио1: AC3, 2 ch, 192 Kbps - Русский, MVO (СТС) Аудио2: AC3, 2 ch, 192 Kbps - Русский, MVO (Варус Видео) Аудио3: AC3, 2 ch, 192 Kbps - Русский, MVO (Paramount Channel) Аудио4: AC3, 2 ch, 192 Kbps - Русский, MVO (Инис) Аудио5: AC3, 2 ch, 192 Kbps - Русский, MVO Аудио6: AC3, 2 ch, 192 Kbps - Русский, DVO (НТВ) Аудио7: AC3, 2 ch, 192 Kbps - Русский, DVO (Союз-Совенчер) Аудио8: AC3, 2 ch, 192 Kbps - Русский, DVO (Кинопрокат) Аудио9: AC3, 2 ch, 192 Kbps - Русский, AVO (Юрий Живов) Аудио10: AC3, 2 ch, 192 Kbps - Русский, AVO (Вартан Дохалов) Аудио11: AC3, 2 ch, 192 Kbps - Русский, VO Аудио12: AC3, 2 ch, 448 Kbps - Английский Субтитры: английские (SDH) Навигация по главам: Есть
[+] Лог (x265 info) + Mediainfo x265 : frame I: 610, Avg QP:18.16 kb/s: 31916.36 x265 : frame P: 28796, Avg QP:19.58 kb/s: 24172.39 x265 : frame B: 114426, Avg QP:21.41 kb/s: 13550.20 x265 : Weighted P-Frames: Y:14.4% UV:12.6% x265 : Weighted B-Frames: Y:11.7% UV:9.9% x265 : encoded 143832 frames in 114997.35s (1.25 fps), 15754.72 kb/s, Avg QP:21.03 Общее Уникальный идентификатор : 326858894827626363318377266319425323385 (0xF5E6BBBA73C19FD4644694394028C179) Полное имя : .Копи.царя.Соломона.King.Solomon's.Mines.1985.DEU.Transfer.Remastered.BDRip-HEVC.1080p.mkv Формат : Matroska Версия формата : Version 4 Размер файла : 12,8 Гбайт Продолжительность : 1 ч. 39 мин. Общий битрейт : 18,3 Мбит/сек Частота кадров : 23,976 кадра/сек Название фильма : Копи царя Соломона / Копи царя Соломона Кодирование выполнил : OldGamer Тип содержимого : Movie Дата выпуска : 1985-11-22 Дата записи : 1985-11-22 Программа кодирования : mkvmerge v83.0 ('Circle Of Friends') 64-bit Библиотека кодирования : libebml v1.4.5 + libmatroska v1.7.1 / xvid4psp5 Обложка : Yes Attachments : cover.jpg ACTOR : Richard Chamberlain, Sharon Stone, Herbert Lom, Джон Рис-Дэвис, Ken Gampu, June Buthelezi, Sam Williams, Fidelis Chea, Shaike Ophir, Mick Lesley, Vincent Van der Byl, Bob Greer, Oliver Tengende, Neville Thomas, Bishop McThuzen, Isiah Murert, Rocky Gr... ARTIST : Richard Chamberlain, Sharon Stone, Herbert Lom, Джон Рис-Дэвис, Ken Gampu, June Buthelezi, Sam Williams, Fidelis Chea, Shaike Ophir, Mick Lesley, Vincent Van der Byl, Bob Greer, Oliver Tengende, Neville Thomas, Bishop McThuzen, Isiah Murert, Rocky Gr... DIRECTOR : J. Lee Thompson GENRE : боевик, приключения, комедия LAW_RATING : PG-13 PRODUCER : Yoram Globus, Menahem Golan PRODUCTION_STUDIO : Golan-Globus Productions RATING : PG-13 SCREENPLAY_BY : Gene Quintano, James R. Silke SYNOPSIS : Отец главной героини отправляется на поиски бриллиантовых копей царя Соломона и пропадает без вести. Очаровательная Джесси Хьюстон затевает рискованное сафари для его спасения. Кто же будет её проводником? Легендарный солдат удачи, известный как Куотермейн. Чтобы добраться до сокровищ и опередить кровожадного соперника, им приходится преодолеть множество препятствий: от голодных каннибалов и гигантских пауков до зыбучих песков и озёр бурлящей лавы. Но нет преград, способных остановить любящие сердца! WRITTEN_BY : Gene Quintano, James R. Silke Видео Идентификатор : 1 Формат : HEVC Формат/Информация : High Efficiency Video Coding Профиль формата : Main 10@L4.1@High Идентификатор кодека : V_MPEGH/ISO/HEVC Продолжительность : 1 ч. 39 мин. Битрейт : 15,8 Мбит/сек Ширина : 1 920 пикселей Высота : 816 пикселей Соотношение сторон дисплея : 2,35:1 Режим частоты кадров : Постоянный Частота кадров : 23,976 (24000/1001) кадра/сек Цветовое пространство : YUV Цветовая субдискретизация : 4:2:0 Битовая глубина : 10 бит Бит/(Пиксели*Кадры) : 0.419 Размер потока : 11,0 Гбайт (86%) Заголовок : King Solomon's Mines / Rip by OldGamer Библиотека кодирования : x265 3.5+110-8ee01d45b: 10bit Параметры библиотеки кодирования : cpuid=1111039 / frame-threads=4 / numa-pools=16 / wpp / no-pmode / no-pme / no-psnr / no-ssim / log-level=2 / input-csp=1 / input-res=1920x816 / interlace=0 / total-frames=143832 / level-idc=41 / high-tier=1 / uhd-bd=0 / ref=5 / no-allow-non-conformance / no-repeat-headers / annexb / no-aud / no-eob / no-eos / no-hrd / info / hash=0 / temporal-layers=0 / open-gop / min-keyint=23 / keyint=240 / gop-lookahead=0 / bframes=16 / b-adapt=2 / b-pyramid / bframe-bias=0 / rc-lookahead=40 / lookahead-slices=0 / scenecut=40 / no-hist-scenecut / radl=0 / no-splice / no-intra-refresh / ctu=32 / min-cu-size=8 / rect / amp / max-tu-size=32 / tu-inter-depth=4 / tu-intra-depth=4 / limit-tu=1 / rdoq-level=2 / dynamic-rd=0.00 / no-ssim-rd / signhide / no-tskip / nr-intra=0 / nr-inter=0 / no-constrained-intra / no-strong-intra-smoothing / max-merge=5 / limit-refs=3 / no-limit-modes / me=3 / subme=7 / merange=57 / temporal-mvp / no-frame-dup / no-hme / weightp / weightb / no-analyze-src-pics / deblock=-2:-2 / no-sao / no-sao-non-deblock / rd=6 / selective-sao=0 / no-early-skip / no-rskip / no-fast-intra / no-tskip-fast / no-cu-lossless / b-intra / no-splitrd-skip / rdpenalty=0 / psy-rd=2.00 / psy-rdoq=1.00 / no-rd-refine / no-lossless / cbqpoffs=0 / crqpoffs=0 / rc=crf / crf=18.0 / qcomp=0.60 / qpstep=4 / stats-write=0 / stats-read=0 / vbv-maxrate=50000 / vbv-bufsize=50000 / vbv-init=0.9 / min-vbv-fullness=50.0 / max-vbv-fullness=80.0 / crf-max=0.0 / crf-min=0.0 / ipratio=1.40 / pbratio=1.30 / aq-mode=1 / aq-strength=1.00 / no-cutree / zone-count=0 / no-strict-cbr / qg-size=32 / no-rc-grain / qpmax=69 / qpmin=0 / no-const-vbv / sar=1 / overscan=0 / videoformat=5 / range=0 / colorprim=2 / transfer=2 / colormatrix=2 / chromaloc=0 / display-window=0 / cll=0,0 / min-luma=0 / max-luma=1023 / log2-max-poc-lsb=8 / vui-timing-info / vui-hrd-info / slices=1 / no-opt-qp-pps / no-opt-ref-list-length-pps / no-multi-pass-opt-rps / scenecut-bias=0.00 / no-opt-cu-delta-qp / no-aq-motion / no-hdr10 / no-hdr10-opt / no-dhdr10-opt / no-idr-recovery-sei / analysis-reuse-level=0 / analysis-save-reuse-level=0 / analysis-load-reuse-level=0 / scale-factor=0 / refine-intra=0 / refine-inter=0 / refine-mv=1 / refine-ctu-distortion=0 / no-limit-sao / ctu-info=0 / no-lowpass-dct / refine-analysis-type=0 / copy-pic=1 / max-ausize-factor=1.0 / no-dynamic-refine / no-single-sei / no-hevc-aq / no-svt / no-field / qp-adaptation-range=1.00 / scenecut-aware-qp=0conformance-window-offsets / right=0 / bottom=0 / decoder-max-rate=0 / no-vbv-live-multi-pass / no-mcstf / no-sbrc Язык : Английский По умолчанию : Да Принудительно : Нет Аудио #1 Идентификатор : 2 Формат : AC-3 Формат/Информация : Audio Coding 3 Коммерческое название : Dolby Digital Идентификатор кодека : A_AC3 Продолжительность : 1 ч. 39 мин. Вид битрейта : Постоянный Битрейт : 192 Кбит/сек Канал(-ы) : 2 канала Расположение каналов : L R Частота дискретизации : 48,0 КГц Частота кадров : 31,250 кадров/сек (1536 SPF) Метод сжатия : С потерями Размер потока : 137 Мбайт (1%) Заголовок : MVO (СТС) Язык : Русский Вид сервиса : Complete Main По умолчанию : Да Принудительно : Нет Нормализация звука речи : -31 dB compr : -0.28 dB dsurmod : Not Dolby Surround encoded ltrtcmixlev : 3.0 dB ltrtsurmixlev : 3.0 dB lorocmixlev : 3.0 dB lorosurmixlev : 3.0 dB dialnorm_Average : -31 dB dialnorm_Minimum : -31 dB dialnorm_Maximum : -31 dB Аудио #2 Идентификатор : 3 Формат : AC-3 Формат/Информация : Audio Coding 3 Коммерческое название : Dolby Digital Идентификатор кодека : A_AC3 Продолжительность : 1 ч. 39 мин. Вид битрейта : Постоянный Битрейт : 192 Кбит/сек Канал(-ы) : 2 канала Расположение каналов : L R Частота дискретизации : 48,0 КГц Частота кадров : 31,250 кадров/сек (1536 SPF) Метод сжатия : С потерями Размер потока : 137 Мбайт (1%) Заголовок : MVO (Варус Видео) Язык : Русский Вид сервиса : Complete Main По умолчанию : Нет Принудительно : Нет Нормализация звука речи : -27 dB compr : -0.28 dB dialnorm_Average : -27 dB dialnorm_Minimum : -27 dB dialnorm_Maximum : -27 dB Аудио #3 Идентификатор : 4 Формат : AC-3 Формат/Информация : Audio Coding 3 Коммерческое название : Dolby Digital Идентификатор кодека : A_AC3 Продолжительность : 1 ч. 39 мин. Вид битрейта : Постоянный Битрейт : 192 Кбит/сек Канал(-ы) : 2 канала Расположение каналов : L R Частота дискретизации : 48,0 КГц Частота кадров : 31,250 кадров/сек (1536 SPF) Метод сжатия : С потерями Размер потока : 137 Мбайт (1%) Заголовок : MVO (Paramount Channel) Язык : Русский Вид сервиса : Complete Main По умолчанию : Нет Принудительно : Нет Нормализация звука речи : -27 dB compr : -0.28 dB dialnorm_Average : -27 dB dialnorm_Minimum : -27 dB dialnorm_Maximum : -27 dB Аудио #4 Идентификатор : 5 Формат : AC-3 Формат/Информация : Audio Coding 3 Коммерческое название : Dolby Digital Идентификатор кодека : A_AC3 Продолжительность : 1 ч. 39 мин. Вид битрейта : Постоянный Битрейт : 192 Кбит/сек Канал(-ы) : 2 канала Расположение каналов : L R Частота дискретизации : 48,0 КГц Частота кадров : 31,250 кадров/сек (1536 SPF) Метод сжатия : С потерями Размер потока : 137 Мбайт (1%) Заголовок : MVO (Инис) Язык : Русский Вид сервиса : Complete Main По умолчанию : Нет Принудительно : Нет Нормализация звука речи : -31 dB compr : -0.28 dB dsurmod : Not Dolby Surround encoded ltrtcmixlev : 3.0 dB ltrtsurmixlev : 3.0 dB lorocmixlev : 3.0 dB lorosurmixlev : 3.0 dB dialnorm_Average : -31 dB dialnorm_Minimum : -31 dB dialnorm_Maximum : -31 dB Аудио #5 Идентификатор : 6 Формат : AC-3 Формат/Информация : Audio Coding 3 Коммерческое название : Dolby Digital Идентификатор кодека : A_AC3 Продолжительность : 1 ч. 39 мин. Вид битрейта : Постоянный Битрейт : 192 Кбит/сек Канал(-ы) : 2 канала Расположение каналов : L R Частота дискретизации : 48,0 КГц Частота кадров : 31,250 кадров/сек (1536 SPF) Метод сжатия : С потерями Размер потока : 137 Мбайт (1%) Заголовок : MVO Язык : Русский Вид сервиса : Complete Main По умолчанию : Нет Принудительно : Нет Нормализация звука речи : -31 dB dialnorm_Average : -31 dB dialnorm_Minimum : -31 dB dialnorm_Maximum : -31 dB Аудио #6 Идентификатор : 7 Формат : AC-3 Формат/Информация : Audio Coding 3 Коммерческое название : Dolby Digital Идентификатор кодека : A_AC3 Продолжительность : 1 ч. 39 мин. Вид битрейта : Постоянный Битрейт : 192 Кбит/сек Канал(-ы) : 2 канала Расположение каналов : L R Частота дискретизации : 48,0 КГц Частота кадров : 31,250 кадров/сек (1536 SPF) Метод сжатия : С потерями Размер потока : 137 Мбайт (1%) Заголовок : DVO (НТВ) Язык : Русский Вид сервиса : Complete Main По умолчанию : Нет Принудительно : Нет Нормализация звука речи : -27 dB compr : -0.28 dB dialnorm_Average : -27 dB dialnorm_Minimum : -27 dB dialnorm_Maximum : -27 dB Аудио #7 Идентификатор : 8 Формат : AC-3 Формат/Информация : Audio Coding 3 Коммерческое название : Dolby Digital Идентификатор кодека : A_AC3 Продолжительность : 1 ч. 39 мин. Вид битрейта : Постоянный Битрейт : 192 Кбит/сек Канал(-ы) : 2 канала Расположение каналов : L R Частота дискретизации : 48,0 КГц Частота кадров : 31,250 кадров/сек (1536 SPF) Метод сжатия : С потерями Размер потока : 137 Мбайт (1%) Заголовок : DVO (Союз-Совенчер) Язык : Русский Вид сервиса : Complete Main По умолчанию : Нет Принудительно : Нет Нормализация звука речи : -27 dB compr : -0.28 dB dynrng : -4.76 dB dsurmod : Not Dolby Surround encoded mixlevel : 285 dB roomtyp : Small dialnorm_Average : -27 dB dialnorm_Minimum : -27 dB dialnorm_Maximum : -27 dB Аудио #8 Идентификатор : 9 Формат : AC-3 Формат/Информация : Audio Coding 3 Коммерческое название : Dolby Digital Идентификатор кодека : A_AC3 Продолжительность : 1 ч. 39 мин. Вид битрейта : Постоянный Битрейт : 192 Кбит/сек Канал(-ы) : 2 канала Расположение каналов : L R Частота дискретизации : 48,0 КГц Частота кадров : 31,250 кадров/сек (1536 SPF) Метод сжатия : С потерями Размер потока : 137 Мбайт (1%) Заголовок : DVO (Кинопрокат) Язык : Русский Вид сервиса : Complete Main По умолчанию : Нет Принудительно : Нет Нормализация звука речи : -27 dB compr : -0.28 dB dialnorm_Average : -27 dB dialnorm_Minimum : -27 dB dialnorm_Maximum : -27 dB Аудио #9 Идентификатор : 10 Формат : AC-3 Формат/Информация : Audio Coding 3 Коммерческое название : Dolby Digital Идентификатор кодека : A_AC3 Продолжительность : 1 ч. 39 мин. Вид битрейта : Постоянный Битрейт : 192 Кбит/сек Канал(-ы) : 2 канала Расположение каналов : L R Частота дискретизации : 48,0 КГц Частота кадров : 31,250 кадров/сек (1536 SPF) Метод сжатия : С потерями Размер потока : 137 Мбайт (1%) Заголовок : AVO (Юрий Живов) Язык : Русский Вид сервиса : Complete Main По умолчанию : Нет Принудительно : Нет Нормализация звука речи : -31 dB dialnorm_Average : -31 dB dialnorm_Minimum : -31 dB dialnorm_Maximum : -31 dB Аудио #10 Идентификатор : 11 Формат : AC-3 Формат/Информация : Audio Coding 3 Коммерческое название : Dolby Digital Идентификатор кодека : A_AC3 Продолжительность : 1 ч. 39 мин. Вид битрейта : Постоянный Битрейт : 192 Кбит/сек Канал(-ы) : 2 канала Расположение каналов : L R Частота дискретизации : 48,0 КГц Частота кадров : 31,250 кадров/сек (1536 SPF) Метод сжатия : С потерями Размер потока : 137 Мбайт (1%) Заголовок : AVO (Вартан Дохалов) Язык : Русский Вид сервиса : Complete Main По умолчанию : Нет Принудительно : Нет Нормализация звука речи : -31 dB dialnorm_Average : -31 dB dialnorm_Minimum : -31 dB dialnorm_Maximum : -31 dB Аудио #11 Идентификатор : 12 Формат : AC-3 Формат/Информация : Audio Coding 3 Коммерческое название : Dolby Digital Идентификатор кодека : A_AC3 Продолжительность : 1 ч. 39 мин. Вид битрейта : Постоянный Битрейт : 192 Кбит/сек Канал(-ы) : 2 канала Расположение каналов : L R Частота дискретизации : 48,0 КГц Частота кадров : 31,250 кадров/сек (1536 SPF) Метод сжатия : С потерями Размер потока : 137 Мбайт (1%) Заголовок : VO Язык : Русский Вид сервиса : Complete Main По умолчанию : Нет Принудительно : Нет Нормализация звука речи : -27 dB compr : -0.28 dB dynrng : -4.30 dB dsurmod : Not Dolby Surround encoded mixlevel : 285 dB roomtyp : Small dialnorm_Average : -27 dB dialnorm_Minimum : -27 dB dialnorm_Maximum : -27 dB Аудио #12 Идентификатор : 13 Формат : AC-3 Формат/Информация : Audio Coding 3 Коммерческое название : Dolby Digital Идентификатор кодека : A_AC3 Продолжительность : 1 ч. 39 мин. Вид битрейта : Постоянный Битрейт : 448 Кбит/сек Канал(-ы) : 2 канала Расположение каналов : L R Частота дискретизации : 48,0 КГц Частота кадров : 31,250 кадров/сек (1536 SPF) Метод сжатия : С потерями Размер потока : 320 Мбайт (2%) Язык : Английский Вид сервиса : Complete Main По умолчанию : Нет Принудительно : Нет Нормализация звука речи : -27 dB compr : -0.28 dB dynrng : 5.46 dB dsurmod : Not Dolby Surround encoded mixlevel : 285 dB roomtyp : Small dialnorm_Average : -27 dB dialnorm_Minimum : -27 dB dialnorm_Maximum : -27 dB Текст #1 Идентификатор : 14 Формат : UTF-8 Идентификатор кодека : S_TEXT/UTF8 Идентификатор кодека/Информация : UTF-8 Plain Text Продолжительность : 1 ч. 37 мин. Битрейт : 35 бит/сек Частота кадров : 0,127 кадр/сек Число элементов : 739 Размер потока : 25,0 КиБ (0%) Заголовок : English Full Язык : Английский По умолчанию : Нет Принудительно : Нет Текст #2 Идентификатор : 15 Формат : UTF-8 Идентификатор кодека : S_TEXT/UTF8 Идентификатор кодека/Информация : UTF-8 Plain Text Продолжительность : 1 ч. 36 мин. Битрейт : 36 бит/сек Частота кадров : 0,132 кадр/сек Число элементов : 762 Размер потока : 25,8 КиБ (0%) Заголовок : English SDH Язык : Английский По умолчанию : Нет Принудительно : Нет Меню 00:00:00.000 : en:Main Title/The City 00:06:24.500 : en:Lifted 00:11:33.818 : en:The Mummy and the Map 00:17:50.500 : en:"Great White Hunter" 00:24:48.500 : en:Catching the Train 00:32:08.000 : en:Fatal Attraction 00:38:25.595 : en:Taking Off 00:46:26.051 : en:Vegetable Soup 00:54:55.000 : en:Upside Down 01:02:27.100 : en:Croc Fodder 01:07:47.000 : en:The Savior 01:13:19.106 : en:So Close 01:19:45.000 : en:"Don't Panic" 01:25:18.000 : en:The Booty 01:31:06.000 : en:The Last Hurdle 01:35:56.799 : en:Not Guilty/End Credits
[+] Скриншоты
Релиз от: OldGamer

Всего файлов в раздаче: 1 
Копи.царя.Соломона.King.Solomon's.Mines.1985.DEU.Transfer.Remastered.BDRip-HEVC.1080p.mkv12.80 GB

Похожие раздачи по запросу - Копи
2024-06-10 magnet Копи царя Соломона / King Solomon's Mines [01-02 из 02] (2004) HDRip-AVC от ExKinoRay | P 5.12 GB ↑ 0 ↓ 0

Кто качает (только для создателя раздачи и модераторов): Локальные пиры отсутствуют

Комментарии


Зарегистрируйтесь чтобы добавить комментарий
Торрент клиент
byTorrent - программа для загрузки торрент-файлов.

Скачать byTorrent.exe (1,5 МБ)

Скачать byTorrent.zip (0,6 МБ)

Поддержи torrent.by
российских рублей
(300 российских рублей это 4$)

Обратная связь rss

End game ©