↑↓torrent.by
Поиск
Логин:  Регистрация
Пароль:

Таро: Карта смерти / Tarot (2024) WEB-DLRip-AVC | D, P

download Скачать торрент-файл   magnet Магнитная ссылка Размер: 1.73 GB Раздают: 3 Качают: 0 Добавлен: il68k 2024-06-04 10:52
Пиры будут получены из сети DHT
Последний сидер был замечен сегодня в 06:07
Информация о фильме Название: Таро: Карта смерти Оригинальное название: Tarot Год выхода: 2024 Жанр: ужасы Режиссер: Спенсер Коэн, Анна Халберг В ролях: Харриет Слейтер, Эдейн Брэдли, Джейкоб Баталон, Авантика, Умберли Гонсалес, Вольфганг Новограц, Ларсен Томпсон, Олуэн Фуэре, Сунчика Миланович, Алан Уэллс О фильме: Когда компания друзей безрассудно нарушает священное правило гадания на Таро — никогда не использовать чужую колоду — они неосознанно высвобождают зло, запертое в проклятых картах. Один за другим они оказываются лицом к лицу с судьбой и вступают в гонку со смертью, чтобы избежать будущего, предсказанного в их гаданиях. Страна: США, Сербия Студия: Alloy Entertainment, Capstone Pictures, Ground Control, Screen Gems Продолжительность: 01:32:11 Перевод 1: Профессиональный (дублированный) | MovieDalen Перевод 2: Профессиональный (многоголосый, закадровый) | HDRezka Studio Файл Кодек: H.264 Качество: WEB-DLRip-AVC Видео: MPEG-4 AVC, 1666 Kbps, 1024x426 (2.40:1), 23.976 fps, 0.159 bit/pixel, High@L4.1 Звук 1: 48 kHz, AC3 Dolby Digital, 3/2 (L, C, R, l, r) + LFE ch, ~384 kbps | MovieDalen Звук 2: 48 kHz, AC3 Dolby Digital, 2/0 (L, R) ch, ~192 kbps | HDRezka Studio Звук 3: 48 kHz, AC3 Dolby Digital, 3/2 (L, C, R, l, r) + LFE ch, ~448 kbps | Английский Субтитры: английские (full, SDH), испанские, немецкие, французские Семпл
[+] Скриншоты
[+] MediaInfo raw : 1024x426p 1:1 @ 24000/1001 fps (cfr) x264 : using SAR=1/1 x264 : using cpu capabilities: MMX2 SSE2Fast SSSE3 SSE4.2 AVX FMA3 BMI2 AVX2 x264 : profile High, level 4.1, 4:2:0, 8-bit x264 : frame I:1196 Avg QP:11.93 : frame P:30287 Avg QP:13.14 : frame B:101139 Avg QP:15.43 : consecutive B-frames: 2.2% 2.1% 7.1% 43.3% 10.7% 20.8% 4.9% 5.1% 1.1% 1.4% 0.7% 0.6% x264 : mb I I16..4: 18.6% 60.1% 21.3% x264 : mb P I16..4: 4.4% 13.1% 1.7% P16..4: 32.2% 25.2% 15.8% 0.0% 0.0% skip: 7.6% x264 : mb B I16..4: 0.3% 0.7% 0.1% B16..8: 35.3% 13.3% 3.1% direct: 5.4% skip:41.9% L0:44.7% L1:46.3% BI: 9.0% x264 : 8x8 transform intra:66.3% inter:47.0% x264 : direct mvs spatial:100.0% temporal:0.0% x264 : coded y, uvDC, uvAC intra: 76.5% 67.8% 60.8% inter: 19.6% 16.8% 9.3% x264 : i16 v, h, dc, p: 54% 12% 17% 17% x264 : i8 v, h, dc, ddl, ddr, vr, hd, vl, hu: 14% 11% 26% 7% 8% 9% 8% 8% 10% x264 : i4 v, h, dc, ddl, ddr, vr, hd, vl, hu: 16% 10% 11% 9% 12% 12% 10% 10% 10% x264 : i8c dc, h, v, p: 59% 17% 16% 8% x264 : Weighted P-Frames: Y:12.5% UV:9.8% x264 : ref P L0: 50.0% 5.7% 17.1% 6.8% 5.0% 3.5% 3.0% 1.6% 1.5% 1.2% 1.1% 0.9% 0.9% 0.8% 0.8% 0.1% x264 : ref B L0: 69.1% 14.1% 6.0% 2.9% 1.9% 1.5% 1.2% 0.8% 0.6% 0.5% 0.4% 0.4% 0.3% 0.1% x264 : ref B L1: 92.7% 7.3% x264 : kb/s:1665.80 x264 : encoded 132622 frames, 28.81 fps, 1665.81 kb/s ======================================================================= General Unique ID: 119161172326076529177962120554116590942 (0x59A59B644B24DF7EF0B1BADBE3FCAD5E) Complete name: D:\Taro.Karta.smerti.2024.AMZN.WEB-DLRip.AVC.mkv Format: Matroska Format version: Version 4 File size: 1.73 GiB Duration: 1 h 32 min Overall bit rate: 2 692 kb/s Frame rate: 23.976 FPS Movie name: Tarot (2024) WEB-DLRip-AVC _ vitolinform Encoded date: 2024-06-04 07:01:33 UTC Writing application: mkvmerge v85.0 ('Shame For You') 64-bit Writing library: libebml v1.4.5 + libmatroska v1.7.1 Attachments: poster.jpg / log.log Video ID: 1 Format: AVC Format/Info: Advanced Video Codec Format profile: High@L4.1 Format settings: CABAC / 15 Ref Frames Format settings, CABAC: Yes Format settings, Reference frames: 15 frames Codec ID: V_MPEG4/ISO/AVC Duration: 1 h 32 min Bit rate: 1 666 kb/s Width: 1 024 pixels Height: 426 pixels Display aspect ratio: 2.40:1 Frame rate mode: Constant Frame rate: 23.976 (24000/1001) FPS Color space: YUV Chroma subsampling: 4:2:0 Bit depth: 8 bits Scan type: Progressive Bits/(Pixel*Frame): 0.159 Stream size: 1.07 GiB (62%) Title: Таро: Карта смерти / Tarot (2024) Writing library: x264 core 164 r3172 c1c9931 Encoding settings: cabac=1 / ref=15 / deblock=1:-3:-3 / analyse=0x3:0x113 / me=umh / subme=10 / psy=1 / psy_rd=1.00:0.15 / mixed_ref=1 / me_range=32 / chroma_me=1 / trellis=2 / 8x8dct=1 / cqm=0 / deadzone=21, 11 / fast_pskip=0 / chroma_qp_offset=-3 / threads=13 / lookahead_threads=3 / sliced_threads=0 / nr=0 / decimate=0 / interlaced=0 / bluray_compat=0 / constrained_intra=0 / bframes=11 / b_pyramid=2 / b_adapt=2 / b_bias=0 / direct=3 / weightb=1 / open_gop=0 / weightp=2 / keyint=250 / keyint_min=24 / scenecut=40 / intra_refresh=0 / rc_lookahead=60 / rc=crf / mbtree=0 / crf=18.0 / qcomp=0.60 / qpmin=0 / qpmax=69 / qpstep=4 / vbv_maxrate=50000 / vbv_bufsize=62500 / crf_max=0.0 / nal_hrd=none / filler=0 / ip_ratio=1.40 / pb_ratio=1.30 / aq=1:1.00 Language: English Default: Yes Forced: No Color range: Limited Color primaries: BT.709 Transfer characteristics: BT.709 Matrix coefficients: BT.709 Audio #1 ID: 2 Format: AC-3 Format/Info: Audio Coding 3 Commercial name: Dolby Digital Codec ID: A_AC3 Duration: 1 h 31 min Bit rate mode: Constant Bit rate: 384 kb/s Channel(s): 6 channels Channel layout: L R C LFE Ls Rs Sampling rate: 48.0 kHz Frame rate: 31.250 FPS (1536 SPF) Compression mode: Lossy Stream size: 252 MiB (14%) Title: Dub | MovieDalen Language: Russian Service kind: Complete Main Default: Yes Forced: No Audio #2 ID: 3 Format: AC-3 Format/Info: Audio Coding 3 Commercial name: Dolby Digital Codec ID: A_AC3 Duration: 1 h 32 min Bit rate mode: Constant Bit rate: 192 kb/s Channel(s): 2 channels Channel layout: L R Sampling rate: 48.0 kHz Frame rate: 31.250 FPS (1536 SPF) Compression mode: Lossy Stream size: 127 MiB (7%) Title: MVO | HDRezka Studio Language: Russian Service kind: Complete Main Default: No Forced: No Audio #3 ID: 4 Format: AC-3 Format/Info: Audio Coding 3 Commercial name: Dolby Digital Codec ID: A_AC3 Duration: 1 h 32 min Bit rate mode: Constant Bit rate: 448 kb/s Channel(s): 6 channels Channel layout: L R C LFE Ls Rs Sampling rate: 48.0 kHz Frame rate: 31.250 FPS (1536 SPF) Compression mode: Lossy Stream size: 295 MiB (17%) Title: English Language: English Service kind: Complete Main Default: No Forced: No Text #1 ID: 5 Format: UTF-8 Codec ID: S_TEXT/UTF8 Codec ID/Info: UTF-8 Plain Text Duration: 1 h 31 min Bit rate: 86 b/s Frame rate: 0.203 FPS Count of elements: 1110 Stream size: 58.1 KiB (0%) Title: Full | Жумашева Молдир Language: Russian Default: No Forced: No Text #2 ID: 6 Format: UTF-8 Codec ID: S_TEXT/UTF8 Codec ID/Info: UTF-8 Plain Text Duration: 1 h 31 min Bit rate: 57 b/s Frame rate: 0.226 FPS Count of elements: 1234 Stream size: 38.3 KiB (0%) Title: Full Language: English Default: No Forced: No Text #3 ID: 7 Format: UTF-8 Codec ID: S_TEXT/UTF8 Codec ID/Info: UTF-8 Plain Text Duration: 1 h 31 min Bit rate: 64 b/s Frame rate: 0.259 FPS Count of elements: 1421 Stream size: 43.0 KiB (0%) Title: SDH Language: English Default: No Forced: No Text #4 ID: 8 Format: UTF-8 Codec ID: S_TEXT/UTF8 Codec ID/Info: UTF-8 Plain Text Duration: 1 h 31 min Bit rate: 50 b/s Frame rate: 0.214 FPS Count of elements: 1170 Stream size: 33.6 KiB (0%) Title: Full Language: German Default: No Forced: No Text #5 ID: 9 Format: UTF-8 Codec ID: S_TEXT/UTF8 Codec ID/Info: UTF-8 Plain Text Duration: 1 h 31 min Bit rate: 47 b/s Frame rate: 0.199 FPS Count of elements: 1091 Stream size: 31.7 KiB (0%) Title: Full Language: Spanish Default: No Forced: No Text #6 ID: 10 Format: UTF-8 Codec ID: S_TEXT/UTF8 Codec ID/Info: UTF-8 Plain Text Duration: 1 h 31 min Bit rate: 42 b/s Frame rate: 0.185 FPS Count of elements: 1012 Stream size: 28.4 KiB (0%) Title: Full Language: French Default: No Forced: No Menu 00:00:00.000: en:Studio Logo 00:00:44.000: en:Scene 2 00:00:53.000: en:Scene 3 00:03:58.000: en:Scene 4 00:04:04.000: en:Scene 5 00:09:59.000: en:Scene 6 00:16:58.000: en:Title Sequence 00:17:04.000: en:Scene 8 00:21:02.000: en:Scene 9 00:22:02.000: en:Scene 10 00:23:44.000: en:Scene 11 00:30:02.000: en:Scene 12 00:35:01.000: en:Scene 13 00:40:34.000: en:Scene 14 00:48:48.000: en:Scene 15 00:53:32.000: en:Scene 16 00:59:50.000: en:Scene 17 00:59:58.000: en:Scene 18 01:00:18.000: en:Scene 19 01:07:53.000: en:Scene 20 01:08:50.000: en:Scene 21 01:09:52.000: en:Scene 22 01:09:56.000: en:Scene 23 01:16:19.000: en:Scene 24 01:23:09.000: en:Scene 25 01:25:30.000: en:End Credits
Rip by vitolinform

Всего файлов в раздаче: 1 
Taro.Karta.smerti.2024.AMZN.WEB-DLRip.AVC.mkv1.73 GB

Похожие раздачи по запросу - Таро
2024-06-04 magnet Таро: Карта смерти / Tarot (2024) WEB-DLRip от New-Team | D 1.46 GB ↑ 0 ↓ 0
2024-06-04 magnet Таро: Карта смерти / Tarot (2024) WEB-DL 720p от селезень | D, P, A 2.47 GB ↑ 0 ↓ 0
2024-06-04 magnet Таро: Карта смерти / Tarot (2024) WEB-DL 1080p от New-Team | D, P, A 4.86 GB ↑ 1 ↓ 2
2024-05-31 magnet Таро: Карта смерти / Tarot (2024) WEB-DL 720p от селезень | P, A | HDRezka Studio, Есарев 2.23 GB ↑ 0 ↓ 0
2024-05-31 magnet Таро: Карта смерти / Tarot (2024) WEB-DLRip-AVC | P, A | HDRezka Studio, Есарев 1.78 GB ↑ 0 ↓ 0
2024-05-31 magnet Таро: Карта смерти / Tarot (2024) WEB-DL 1080p от New-Team | P, A | HDRezka Studio, Есарев 4.61 GB ↑ 0 ↓ 0
2024-05-29 magnet Таро: Карта смерти / Tarot (2024) WEB-DLRip от New-Team | A | Есарев 1.46 GB ↑ 0 ↓ 0

Кто качает (только для создателя раздачи и модераторов):
ПользовательIP:портОтдалПринялОстатокСидируетТоррент клиентОбновился
1 Аноним 88.201.168.63:55939 8.70 MB 0.00 B 0.00 B да -UT360W- 05:52 2024-06-14
2 Аноним 62.3.34.185:55546 230.17 MB 0.00 B 0.00 B да -qB4650- 06:07 2024-06-14
3 Аноним 90.188.6.90:62915 16.00 kB 0.00 B 0.00 B да -qB4650- 05:50 2024-06-14

Комментарии


Зарегистрируйтесь чтобы добавить комментарий
Торрент клиент
byTorrent - программа для загрузки торрент-файлов.

Скачать byTorrent.exe (1,5 МБ)

Скачать byTorrent.zip (0,6 МБ)

Поддержи torrent.by
российских рублей
(300 российских рублей это 4$)

Обратная связь rss

End game ©