↑↓torrent.by
Поиск
Логин:  Регистрация
Пароль:

Паутина страха / Vermines / Infested (2023) BDRip 720p от DoMiNo & селезень | D | Пифагор

download Скачать торрент-файл   magnet Магнитная ссылка Размер: 5.67 GB Добавлен: 2024-06-04 11:00
Пиры будут получены из сети DHT
Последний сидер был замечен 2024-06-04 11:00
Информация о фильме Название: Паутина страха Оригинальное название: Vermines / Infested Год выхода: 2023 Жанр: Ужасы Режиссер: Себастьян Ваничек В ролях: Тео Кристин, София Лезафр, Жером Ньель, Лиза Ньярко, Финнегэн Олдфилд, Мари-Филомене Нга, Махмаду Сангаре, Абдалла Мунди, Ике Зачонго, Эммануэль Бонами и др. О фильме: Калеб проживет в многоквартирном доме в пригороде Парижа и занимается мелкокриминальной деятельностью, вроде продажи ворованных кроссовок. Также парень обожает экзотических насекомых и однажды приобретает ядовитого паука, привезённого из Северной Африки. Почти сразу же особь сбегает, начинает неистово размножаться и кусает одного из жильцов. Полиция, опасаясь, что происходит распространение опасной болезни, закрывает многоэтажку на карантин. Страна: Франция / Centre National du Cinéma, France Télévision, My Box Productions, Netflix, Tandem Продолжительность: 01:45:35 Перевод: Дублированный | Пифагор Субтитры: Русские (Forced, Full), Английские Файл Формат: Matroska Качество: BDRip 720p | Исх.Infested aka Vermines 2023 Hybrid 2160p UHD Blu-ray Remux DoVi HDR10+ HEVC DTS-HD MA 5.1 Видео: 1280x534 at 24.000 fps, x264@L4.1, ~6156 kbps Аудио 1: AC3, 6 ch, ~448 kbps - | Русский | Аудио 2: E-AC3, 6 ch, ~448 kbps - | Русский | Аудио 3: AC3, 6 ch, ~640 kbps - | Французский | Формат субтитров: softsub (SRT) ***Рип от: -=DoMiNo=-
[+] M/I frame I:1135 Avg QP:15.17 size: 93201 frame P:33007 Avg QP:16.56 size: 54604 frame B:117888 Avg QP:18.93 size: 25166 General Unique ID : 74670052764239601602287323418418482122 (0x382CEDD6A9FA9C6C82DBF91E68440BCA) Complete name : T:Vermines.2023.DUB.BDRip.720p.x264.seleZen.mkv Format : Matroska Format version : Version 4 File size : 5.67 GiB Duration : 1 h 45 min Overall bit rate : 7 695 kb/s Frame rate : 24.000 FPS Movie name : Vermines.2023.DUB.BDRip.720p.x264.seleZen Encoded date : 2024-06-03 21:01:12 UTC Writing application : mkvmerge v84.0 ('Sleeper') 64-bit Writing library : libebml v1.4.5 + libmatroska v1.7.1 Cover : Yes Attachments : cover.jpg / small_cover.jpg Video ID : 1 Format : AVC Format/Info : Advanced Video Codec Format profile : High@L4.1 Format settings : CABAC / 12 Ref Frames Format settings, CABAC : Yes Format settings, Reference : 12 frames Codec ID : V_MPEG4/ISO/AVC Duration : 1 h 45 min Bit rate : 6 156 kb/s Width : 1 280 pixels Height : 534 pixels Display aspect ratio : 2.40:1 Frame rate mode : Constant Frame rate : 24.000 FPS Color space : YUV Chroma subsampling : 4:2:0 Bit depth : 8 bits Scan type : Progressive Bits/(Pixel*Frame) : 0.375 Stream size : 4.54 GiB (80%) Title : -=DoMiNo=- Writing library : x264 core 164 r3173 4815cca Encoding settings : cabac=1 / ref=12 / deblock=1:-2:-2 / analyse=0x3:0x133 / me=umh / subme=10 / psy=1 / psy_rd=1.05:0.05 / mixed_ref=1 / me_range=32 / chroma_me=1 / trellis=2 / 8x8dct=1 / cqm=0 / deadzone=21,11 / fast_pskip=0 / chroma_qp_offset=-3 / threads=17 / lookahead_threads=4 / sliced_threads=0 / nr=0 / decimate=1 / interlaced=0 / bluray_compat=0 / constrained_intra=0 / bframes=10 / b_pyramid=2 / b_adapt=2 / b_bias=0 / direct=3 / weightb=1 / open_gop=0 / weightp=2 / keyint=240 / keyint_min=24 / scenecut=40 / intra_refresh=0 / rc_lookahead=80 / rc=crf / mbtree=0 / crf=18.0 / qcomp=0.60 / qpmin=0 / qpmax=69 / qpstep=4 / vbv_maxrate=50000 / vbv_bufsize=62500 / crf_max=30.0 / nal_hrd=none / filler=0 / ip_ratio=1.40 / pb_ratio=1.30 / aq=3:0.80 Language : French Default : Yes Forced : No Color range : Limited Color primaries : BT.709 Transfer characteristics : BT.709 Matrix coefficients : BT.709 Audio #1 ID : 2 Format : AC-3 Format/Info : Audio Coding 3 Commercial name : Dolby Digital Codec ID : A_AC3 Duration : 1 h 45 min Bit rate mode : Constant Bit rate : 448 kb/s Channel(s) : 6 channels Channel layout : L R C LFE Ls Rs Sampling rate : 48.0 kHz Frame rate : 31.250 FPS (1536 SPF) Compression mode : Lossy Stream size : 338 MiB (6%) Title : Дублированный | Пифагор Language : Russian Service kind : Complete Main Default : Yes Forced : No Dialog Normalization : -27 dB compr : -0.28 dB cmixlev : -3.0 dB surmixlev : -3 dB mixlevel : 281 dB roomtyp : 3 ltrtcmixlev : -3.0 dB ltrtsurmixlev : -3.0 dB lorocmixlev : -3.0 dB lorosurmixlev : -4.5 dB dialnorm_Average : -27 dB dialnorm_Minimum : -27 dB dialnorm_Maximum : -27 dB Audio #2 ID : 3 Format : E-AC-3 Format/Info : Enhanced AC-3 Commercial name : Dolby Digital Plus Codec ID : A_EAC3 Duration : 1 h 45 min Bit rate mode : Constant Bit rate : 448 kb/s Channel(s) : 6 channels Channel layout : L R C LFE Ls Rs Sampling rate : 48.0 kHz Frame rate : 31.250 FPS (1536 SPF) Compression mode : Lossy Stream size : 338 MiB (6%) Title : Дублированный | Пифагор Language : Russian Service kind : Complete Main Default : No Forced : No Dialog Normalization : -23 dB compr : 2.77 dB dmixmod : Lo/Ro ltrtcmixlev : -3.0 dB ltrtsurmixlev : -3.0 dB lorocmixlev : -3.0 dB lorosurmixlev : -3.0 dB dialnorm_Average : -23 dB dialnorm_Minimum : -23 dB dialnorm_Maximum : -23 dB Audio #3 ID : 4 Format : AC-3 Format/Info : Audio Coding 3 Commercial name : Dolby Digital Codec ID : A_AC3 Duration : 1 h 45 min Bit rate mode : Constant Bit rate : 640 kb/s Channel(s) : 6 channels Channel layout : L R C LFE Ls Rs Sampling rate : 48.0 kHz Frame rate : 31.250 FPS (1536 SPF) Compression mode : Lossy Stream size : 483 MiB (8%) Language : French Service kind : Complete Main Default : No Forced : No Dialog Normalization : -31 dB cmixlev : -4.5 dB surmixlev : -6 dB dialnorm_Average : -31 dB dialnorm_Minimum : -31 dB dialnorm_Maximum : -31 dB Text #1 ID : 5 Format : UTF-8 Codec ID : S_TEXT/UTF8 Codec ID/Info : UTF-8 Plain Text Duration : 1 h 37 min Bit rate : 0 b/s Frame rate : 0.003 FPS Count of elements : 16 Stream size : 406 Bytes (0%) Title : Forced Language : Russian Default : No Forced : No Text #2 ID : 6 Format : UTF-8 Codec ID : S_TEXT/UTF8 Codec ID/Info : UTF-8 Plain Text Duration : 1 h 39 min Bit rate : 88 b/s Frame rate : 0.204 FPS Count of elements : 1218 Stream size : 64.2 KiB (0%) Title : Full Language : Russian Default : No Forced : No Text #3 ID : 7 Format : UTF-8 Codec ID : S_TEXT/UTF8 Codec ID/Info : UTF-8 Plain Text Duration : 1 h 39 min Bit rate : 34 b/s Frame rate : 0.195 FPS Count of elements : 1157 Stream size : 25.0 KiB (0%) Language : English Default : No Forced : No Menu 00:00:00.000 : Chapter 01 00:09:16.375 : Chapter 02 00:20:10.458 : Chapter 03 00:30:56.667 : Chapter 04 00:40:13.250 : Chapter 05 00:51:00.667 : Chapter 06 01:01:05.042 : Chapter 07 01:16:03.542 : Chapter 08 01:25:48.750 : Chapter 09 01:39:09.458 : Chapter 10 01:42:33.583 : Chapter 11 01:45:33.583 : Chapter 12
Релиз: Присоединяйся к: Кликай на баннеры.

Всего файлов в раздаче: 1 
Vermines.2023.DUB.BDRip.720p.x264.seleZen.mkv5.67 GB

Похожие раздачи по запросу - Паутина
2024-06-05 magnet Паутина страха / Vermines / Infested (2023) HDRip-AVC от ExKinoRay | D | Пифагор 743.39 MB ↑ 0 ↓ 0
2024-05-31 magnet Паутина страха / Vermines (2023) WEB-DLRip от ELEKTRI4KA | D 1.46 GB ↑ 0 ↓ 0
2024-05-31 magnet Паутина страха / Vermines (2023) WEB-DL 1080p от ELEKTRI4KA | D 6.21 GB ↑ 0 ↓ 3
2024-05-12 magnet Мадам Паутина / Madame Web (2024) BDRip 1080p от селезень | D, P, P2 9.20 GB ↑ 0 ↓ 0
2024-05-08 magnet Паутина страха / Vermines / Infested (2023) WEBRip 1080p | ViruseProject 5.86 GB ↑ 1 ↓ 0
2024-05-08 magnet Паутина страха / Vermines / Infested (2023) WEB-DLRip от New-Team | P2 | ViruseProject 1.46 GB ↑ 0 ↓ 0
2024-05-08 magnet Паутина страха / Vermines / Infested (2023) WEB-DLRip 720p | P2 | ViruseProject 2.08 GB ↑ 0 ↓ 0

Комментарии


Зарегистрируйтесь чтобы добавить комментарий
Торрент клиент
byTorrent - программа для загрузки торрент-файлов.

Скачать byTorrent.exe (1,5 МБ)

Скачать byTorrent.zip (0,6 МБ)

Поддержи torrent.by
российских рублей
(300 российских рублей это 4$)

Обратная связь rss

End game ©